  0
SECTION
  2
HEADER
  9
$ACADVER
  1
AC1015
  9
$ACADMAINTVER
 70
    20
  9
$DWGCODEPAGE
  3
ANSI_932
  9
$INSBASE
 10
0.0
 20
0.0
 30
0.0
  9
$EXTMIN
 10
736.7136625935382
 20
542.7420721795352
 30
0.0
  9
$EXTMAX
 10
10515.14667191794
 20
4997.741443489839
 30
0.0
  9
$LIMMIN
 10
0.0
 20
0.0
  9
$LIMMAX
 10
2099.999968707901
 20
1484.999977872015
  9
$ORTHOMODE
 70
     0
  9
$REGENMODE
 70
     1
  9
$FILLMODE
 70
     1
  9
$QTEXTMODE
 70
     0
  9
$MIRRTEXT
 70
     0
  9
$LTSCALE
 40
4.999999925495001
  9
$ATTMODE
 70
     1
  9
$TEXTSIZE
 40
231.38771714014
  9
$TRACEWID
 40
1.0
  9
$TEXTSTYLE
  7
STD
  9
$CLAYER
  8
本体
  9
$CELTYPE
  6
ByLayer
  9
$CECOLOR
 62
   256
  9
$CELTSCALE
 40
1.0
  9
$DISPSILH
 70
     0
  9
$DIMSCALE
 40
4.999999925495001
  9
$DIMASZ
 40
3.0
  9
$DIMEXO
 40
1.0
  9
$DIMDLI
 40
8.0
  9
$DIMRND
 40
0.0
  9
$DIMDLE
 40
0.0
  9
$DIMEXE
 40
1.0
  9
$DIMTP
 40
0.0
  9
$DIMTM
 40
0.000000001
  9
$DIMTXT
 40
3.0
  9
$DIMCEN
 40
0.0
  9
$DIMTSZ
 40
0.0
  9
$DIMTOL
 70
     0
  9
$DIMLIM
 70
     0
  9
$DIMTIH
 70
     0
  9
$DIMTOH
 70
     0
  9
$DIMSE1
 70
     0
  9
$DIMSE2
 70
     0
  9
$DIMTAD
 70
     3
  9
$DIMZIN
 70
     9
  9
$DIMBLK
  1
Open30
  9
$DIMASO
 70
     1
  9
$DIMSHO
 70
     1
  9
$DIMPOST
  1

  9
$DIMAPOST
  1

  9
$DIMALT
 70
     0
  9
$DIMALTD
 70
     2
  9
$DIMALTF
 40
0.0005
  9
$DIMLFAC
 40
1.0
  9
$DIMTOFL
 70
     1
  9
$DIMTVP
 40
0.0
  9
$DIMTIX
 70
     0
  9
$DIMSOXD
 70
     0
  9
$DIMSAH
 70
     0
  9
$DIMBLK1
  1

  9
$DIMBLK2
  1

  9
$DIMSTYLE
  2
ASKSTANDARD
  9
$DIMCLRD
 70
     4
  9
$DIMCLRE
 70
     4
  9
$DIMCLRT
 70
     4
  9
$DIMTFAC
 40
0.5
  9
$DIMGAP
 40
1.0
  9
$DIMJUST
 70
     0
  9
$DIMSD1
 70
     0
  9
$DIMSD2
 70
     0
  9
$DIMTOLJ
 70
     1
  9
$DIMTZIN
 70
     0
  9
$DIMALTZ
 70
     0
  9
$DIMALTTZ
 70
     0
  9
$DIMUPT
 70
     0
  9
$DIMDEC
 70
     2
  9
$DIMTDEC
 70
     2
  9
$DIMALTU
 70
     2
  9
$DIMALTTD
 70
     2
  9
$DIMTXSTY
  7
STD
  9
$DIMAUNIT
 70
     0
  9
$DIMADEC
 70
     2
  9
$DIMALTRND
 40
0.0
  9
$DIMAZIN
 70
     2
  9
$DIMDSEP
 70
    46
  9
$DIMATFIT
 70
     0
  9
$DIMFRAC
 70
     0
  9
$DIMLDRBLK
  1
Open30
  9
$DIMLUNIT
 70
     2
  9
$DIMLWD
 70
     9
  9
$DIMLWE
 70
     9
  9
$DIMTMOVE
 70
     0
  9
$LUNITS
 70
     2
  9
$LUPREC
 70
     4
  9
$SKETCHINC
 40
1.0
  9
$FILLETRAD
 40
15.0
  9
$AUNITS
 70
     0
  9
$AUPREC
 70
     0
  9
$MENU
  1
.
  9
$ELEVATION
 40
0.0
  9
$PELEVATION
 40
0.0
  9
$THICKNESS
 40
0.0
  9
$LIMCHECK
 70
     0
  9
$CHAMFERA
 40
60.0
  9
$CHAMFERB
 40
60.0
  9
$CHAMFERC
 40
6.0
  9
$CHAMFERD
 40
3.141592653589793
  9
$SKPOLY
 70
     0
  9
$TDCREATE
 40
2454497.602825139
  9
$TDUCREATE
 40
2454497.227825139
  9
$TDUPDATE
 40
2460991.669465833
  9
$TDUUPDATE
 40
2460991.294465833
  9
$TDINDWG
 40
3.3180962037
  9
$TDUSRTIMER
 40
3.3180956597
  9
$USRTIMER
 70
     1
  9
$ANGBASE
 50
0.0
  9
$ANGDIR
 70
     0
  9
$PDMODE
 70
     1
  9
$PDSIZE
 40
0.0
  9
$PLINEWID
 40
0.0
  9
$SPLFRAME
 70
     0
  9
$SPLINETYPE
 70
     6
  9
$SPLINESEGS
 70
     8
  9
$HANDSEED
  5
EC2C
  9
$SURFTAB1
 70
     6
  9
$SURFTAB2
 70
     6
  9
$SURFTYPE
 70
     6
  9
$SURFU
 70
     6
  9
$SURFV
 70
     6
  9
$UCSBASE
  2

  9
$UCSNAME
  2

  9
$UCSORG
 10
0.0
 20
0.0
 30
0.0
  9
$UCSXDIR
 10
1.0
 20
0.0
 30
0.0
  9
$UCSYDIR
 10
0.0
 20
1.0
 30
0.0
  9
$UCSORTHOREF
  2

  9
$UCSORTHOVIEW
 70
     0
  9
$UCSORGTOP
 10
0.0
 20
0.0
 30
0.0
  9
$UCSORGBOTTOM
 10
0.0
 20
0.0
 30
0.0
  9
$UCSORGLEFT
 10
0.0
 20
0.0
 30
0.0
  9
$UCSORGRIGHT
 10
0.0
 20
0.0
 30
0.0
  9
$UCSORGFRONT
 10
0.0
 20
0.0
 30
0.0
  9
$UCSORGBACK
 10
0.0
 20
0.0
 30
0.0
  9
$PUCSBASE
  2

  9
$PUCSNAME
  2

  9
$PUCSORG
 10
0.0
 20
0.0
 30
0.0
  9
$PUCSXDIR
 10
1.0
 20
0.0
 30
0.0
  9
$PUCSYDIR
 10
0.0
 20
1.0
 30
0.0
  9
$PUCSORTHOREF
  2

  9
$PUCSORTHOVIEW
 70
     0
  9
$PUCSORGTOP
 10
0.0
 20
0.0
 30
0.0
  9
$PUCSORGBOTTOM
 10
0.0
 20
0.0
 30
0.0
  9
$PUCSORGLEFT
 10
0.0
 20
0.0
 30
0.0
  9
$PUCSORGRIGHT
 10
0.0
 20
0.0
 30
0.0
  9
$PUCSORGFRONT
 10
0.0
 20
0.0
 30
0.0
  9
$PUCSORGBACK
 10
0.0
 20
0.0
 30
0.0
  9
$USERI1
 70
     0
  9
$USERI2
 70
     0
  9
$USERI3
 70
     0
  9
$USERI4
 70
     0
  9
$USERI5
 70
     0
  9
$USERR1
 40
0.0
  9
$USERR2
 40
0.0
  9
$USERR3
 40
0.0
  9
$USERR4
 40
0.0
  9
$USERR5
 40
0.0
  9
$WORLDVIEW
 70
     1
  9
$SHADEDGE
 70
     3
  9
$SHADEDIF
 70
    70
  9
$TILEMODE
 70
     1
  9
$MAXACTVP
 70
    64
  9
$PINSBASE
 10
0.0
 20
0.0
 30
0.0
  9
$PLIMCHECK
 70
     0
  9
$PEXTMIN
 10
0.0
 20
0.0
 30
0.0
  9
$PEXTMAX
 10
0.0
 20
0.0
 30
0.0
  9
$PLIMMIN
 10
0.0
 20
0.0
  9
$PLIMMAX
 10
12.0
 20
9.0
  9
$UNITMODE
 70
     0
  9
$VISRETAIN
 70
     1
  9
$PLINEGEN
 70
     0
  9
$PSLTSCALE
 70
     1
  9
$TREEDEPTH
 70
  3020
  9
$CMLSTYLE
  2
Standard
  9
$CMLJUST
 70
     0
  9
$CMLSCALE
 40
20.0
  9
$PROXYGRAPHICS
 70
     1
  9
$MEASUREMENT
 70
     1
  9
$CELWEIGHT
370
    -1
  9
$ENDCAPS
280
     0
  9
$JOINSTYLE
280
     0
  9
$LWDISPLAY
290
     0
  9
$INSUNITS
 70
     4
  9
$HYPERLINKBASE
  1

  9
$STYLESHEET
  1
monochrome.ctb
  9
$XEDIT
290
     1
  9
$CEPSNTYPE
380
     0
  9
$PSTYLEMODE
290
     1
  9
$FINGERPRINTGUID
  2
{D178A04D-76D8-4F2C-AB2D-4FB1B243C31E}
  9
$VERSIONGUID
  2
{958F6222-FE15-4BD2-B8CB-84A35F9A0D61}
  9
$EXTNAMES
290
     1
  9
$PSVPSCALE
 40
0.0
  9
$OLESTARTUP
290
     0
  0
ENDSEC
  0
SECTION
  2
CLASSES
  0
CLASS
  1
ACDBDICTIONARYWDFLT
  2
AcDbDictionaryWithDefault
  3
ObjectDBX Classes
 90
        0
280
     0
281
     0
  0
CLASS
  1
DICTIONARYVAR
  2
AcDbDictionaryVar
  3
ObjectDBX Classes
 90
        0
280
     0
281
     0
  0
CLASS
  1
TABLESTYLE
  2
AcDbTableStyle
  3
ObjectDBX Classes
 90
     2047
280
     0
281
     0
  0
CLASS
  1
MATERIAL
  2
AcDbMaterial
  3
ObjectDBX Classes
 90
        0
280
     0
281
     0
  0
CLASS
  1
VISUALSTYLE
  2
AcDbVisualStyle
  3
ObjectDBX Classes
 90
     4095
280
     0
281
     0
  0
CLASS
  1
SORTENTSTABLE
  2
AcDbSortentsTable
  3
ObjectDBX Classes
 90
        0
280
     0
281
     0
  0
CLASS
  1
SCALE
  2
AcDbScale
  3
ObjectDBX Classes
 90
     1153
280
     0
281
     0
  0
CLASS
  1
MLEADERSTYLE
  2
AcDbMLeaderStyle
  3
ACDB_MLEADERSTYLE_CLASS
 90
     4095
280
     0
281
     0
  0
CLASS
  1
CELLSTYLEMAP
  2
AcDbCellStyleMap
  3
ObjectDBX Classes
 90
     1152
280
     0
281
     0
  0
CLASS
  1
EXACXREFPANELOBJECT
  2
ExAcXREFPanelObject
  3
EXAC_ESW
 90
    33793
280
     0
281
     0
  0
CLASS
  1
NPOCOLLECTION
  2
AcDbImpNonPersistentObjectsCollection
  3
ObjectDBX Classes
 90
    33921
280
     0
281
     0
  0
CLASS
  1
RASTERVARIABLES
  2
AcDbRasterVariables
  3
ISM
 90
        0
280
     0
281
     0
  0
CLASS
  1
AEC_REFEDIT_STATUS_TRACKER
  2
AecDbRefEditStatusTracker
  3
AecArchBase80|Product Desc: Autodesk Architectural Desktop 2007 |Company: Autodesk,Inc. |WEB Address: www.autodesk.com
 90
    32897
280
     0
281
     0
  0
CLASS
  1
ACDBSECTIONVIEWSTYLE
  2
AcDbSectionViewStyle
  3
ObjectDBX Classes
 90
     1025
280
     0
281
     0
  0
CLASS
  1
ACDBDETAILVIEWSTYLE
  2
AcDbDetailViewStyle
  3
ObjectDBX Classes
 90
     1025
280
     0
281
     0
  0
CLASS
  1
ACDBPLACEHOLDER
  2
AcDbPlaceHolder
  3
ObjectDBX Classes
 90
        0
280
     0
281
     0
  0
CLASS
  1
LAYOUT
  2
AcDbLayout
  3
ObjectDBX Classes
 90
        0
280
     0
281
     0
  0
ENDSEC
  0
SECTION
  2
TABLES
  0
TABLE
  2
VPORT
  5
8
102
{ACAD_XDICTIONARY
360
104A
102
}
330
0
100
AcDbSymbolTable
 70
     3
  0
VPORT
  5
EC23
330
8
100
AcDbSymbolTableRecord
100
AcDbViewportTableRecord
  2
*Active
 70
     0
 10
0.0
 20
0.0
 11
1.0
 21
1.0
 12
4654.526581289354
 22
2230.251197640797
 13
0.0
 23
0.0
 14
10.0
 24
10.0
 15
10.0
 25
10.0
 16
0.0
 26
0.0
 36
1.0
 17
0.0
 27
0.0
 37
0.0
 40
4265.372647589156
 41
2.392798690671031
 42
50.0
 43
0.0
 44
0.0
 50
0.0
 51
0.0
 71
     0
 72
  1000
 73
     1
 74
     3
 75
     0
 76
     0
 77
     0
 78
     0
281
     0
 65
     1
110
0.0
120
0.0
130
0.0
111
1.0
121
0.0
131
0.0
112
0.0
122
1.0
132
0.0
 79
     0
146
0.0
  0
ENDTAB
  0
TABLE
  2
LTYPE
  5
5
330
0
100
AcDbSymbolTable
 70
    15
  0
LTYPE
  5
14
330
5
100
AcDbSymbolTableRecord
100
AcDbLinetypeTableRecord
  2
ByBlock
 70
     0
  3

 72
    65
 73
     0
 40
0.0
  0
LTYPE
  5
15
330
5
100
AcDbSymbolTableRecord
100
AcDbLinetypeTableRecord
  2
ByLayer
 70
     0
  3

 72
    65
 73
     0
 40
0.0
  0
LTYPE
  5
16
330
5
100
AcDbSymbolTableRecord
100
AcDbLinetypeTableRecord
  2
Continuous
 70
     0
  3
Solid line
 72
    65
 73
     0
 40
0.0
  0
LTYPE
  5
780
330
5
100
AcDbSymbolTableRecord
100
AcDbLinetypeTableRecord
  2
CENTER2
 70
     0
  3
Center (.5x) ___ _ ___ _ ___ _ ___ _ ___ _ ___
 72
    65
 73
     4
 40
28.575
 49
19.05
 74
     0
 49
-3.174999999999998
 74
     0
 49
3.174999999999998
 74
     0
 49
-3.174999999999998
 74
     0
  0
LTYPE
  5
781
330
5
100
AcDbSymbolTableRecord
100
AcDbLinetypeTableRecord
  2
HIDDEN2
 70
     0
  3
Hidden (.5x) _ _ _ _ _ _ _ _ _ _ _ _ _ _ _ _ _
 72
    65
 73
     2
 40
4.762499999999998
 49
3.174999999999998
 74
     0
 49
-1.587499999999999
 74
     0
  0
LTYPE
  5
782
330
5
100
AcDbSymbolTableRecord
100
AcDbLinetypeTableRecord
  2
PHANTOM2
 70
     0
  3
Phantom (.5x) ___ _ _ ___ _ _ ___ _ _ ___ _ _
 72
    65
 73
     6
 40
31.75
 49
15.875
 74
     0
 49
-3.174999999999998
 74
     0
 49
3.174999999999998
 74
     0
 49
-3.174999999999998
 74
     0
 49
3.174999999999998
 74
     0
 49
-3.174999999999998
 74
     0
  0
LTYPE
  5
7A8
330
5
100
AcDbSymbolTableRecord
100
AcDbLinetypeTableRecord
  2
zigzag
 70
     0
  3
/\/-/\/-/\/-/\/-/\/-/\/
 72
    65
 73
     2
 40
11.0001
 49
0.0001
 74
     4
 75
   135
340
77F
 46
0.04
 50
0.0
 44
0.0
 45
0.0
 49
-11.0
 74
     0
  0
LTYPE
  5
7D1
330
5
100
AcDbSymbolTableRecord
100
AcDbLinetypeTableRecord
  2
DIMENSION
 70
     0
  3
_______________________________________________
 72
    65
 73
     2
 40
0.000000000000002
 49
0.000000000000001
 74
     0
 49
0.000000000000001
 74
     0
  0
LTYPE
  5
1442
330
5
100
AcDbSymbolTableRecord
100
AcDbLinetypeTableRecord
  2
CENTER
 70
     0
  3
Center ____ _ ____ _ ____ _ ____ _ ____ _ ____
 72
    65
 73
     4
 40
50.8
 49
31.75
 74
     0
 49
-6.349999999999997
 74
     0
 49
6.349999999999997
 74
     0
 49
-6.349999999999997
 74
     0
  0
LTYPE
  5
1443
330
5
100
AcDbSymbolTableRecord
100
AcDbLinetypeTableRecord
  2
DASHED
 70
     0
  3
__ __ __ __ __ __ __ __ __ __ __ __ __ __ __
 72
    65
 73
     2
 40
3.5
 49
2.0
 74
     0
 49
-1.5
 74
     0
  0
LTYPE
  5
1444
330
5
100
AcDbSymbolTableRecord
100
AcDbLinetypeTableRecord
  2
PHANTOM
 70
     0
  3
Phantom ______  __  __  ______  __  __  ______
 72
    65
 73
     6
 40
2.5
 49
1.25
 74
     0
 49
-0.25
 74
     0
 49
0.25
 74
     0
 49
-0.25
 74
     0
 49
0.25
 74
     0
 49
-0.25
 74
     0
  0
LTYPE
  5
2A42
330
5
100
AcDbSymbolTableRecord
100
AcDbLinetypeTableRecord
  2
HIDDEN
 70
     0
  3
Hidden __ __ __ __ __ __ __ __ __ __ __ __ __ _
 72
    65
 73
     2
 40
9.524999999999998
 49
6.349999999999999
 74
     0
 49
-3.174999999999999
 74
     0
  0
LTYPE
  5
5540
330
5
100
AcDbSymbolTableRecord
100
AcDbLinetypeTableRecord
  2
DOT2
 70
     0
  3
Dot (.5x) .....................................
 72
    65
 73
     2
 40
3.174999999999999
 49
0.0
 74
     0
 49
-3.174999999999999
 74
     0
  0
LTYPE
  5
6195
330
5
100
AcDbSymbolTableRecord
100
AcDbLinetypeTableRecord
  2
BORDER2
 70
     0
  3
Border (.5x) __.__.__.__.__.__.__.__.__.__.__.
 72
    65
 73
     6
 40
22.225
 49
6.349999999999999
 74
     0
 49
-3.174999999999999
 74
     0
 49
6.349999999999999
 74
     0
 49
-3.174999999999999
 74
     0
 49
0.0
 74
     0
 49
-3.174999999999999
 74
     0
  0
LTYPE
  5
8CE0
330
5
100
AcDbSymbolTableRecord
100
AcDbLinetypeTableRecord
  2
DASHED1
 70
     0
  3
--  --  --  --  --  --  --  --  
 72
    65
 73
     2
 40
2.5
 49
1.25
 74
     0
 49
-1.25
 74
     0
  0
LTYPE
  5
8CE1
330
5
100
AcDbSymbolTableRecord
100
AcDbLinetypeTableRecord
  2
PHANTOM1
 70
     0
  3
--- - - --- - - --- - - --- - - 
 72
    65
 73
     6
 40
10.0
 49
3.25
 74
     0
 49
-1.25
 74
     0
 49
1.25
 74
     0
 49
-1.25
 74
     0
 49
1.25
 74
     0
 49
-1.25
 74
     0
  0
LTYPE
  5
B25A
330
5
100
AcDbSymbolTableRecord
100
AcDbLinetypeTableRecord
  2
DASHED2
 70
     0
  3
----    ----    ----    ----    
 72
    65
 73
     2
 40
5.0
 49
2.5
 74
     0
 49
-2.5
 74
     0
  0
ENDTAB
  0
TABLE
  2
LAYER
  5
2
102
{ACAD_XDICTIONARY
360
688
102
}
330
0
100
AcDbSymbolTable
 70
    27
  0
LAYER
  5
10
102
{ACAD_XDICTIONARY
360
785
102
}
330
2
100
AcDbSymbolTableRecord
100
AcDbLayerTableRecord
  2
0
 70
     0
 62
     7
  6
Continuous
370
    -3
390
F
  0
LAYER
  5
14A
330
2
100
AcDbSymbolTableRecord
100
AcDbLayerTableRecord
  2
Defpoints
 70
     0
 62
     7
  6
Continuous
290
     0
370
    -3
390
F
  0
LAYER
  5
807
330
2
100
AcDbSymbolTableRecord
100
AcDbLayerTableRecord
  2
PV0001_5
 70
     0
 62
     7
  6
Continuous
370
    -3
390
F
  0
LAYER
  5
9B3
330
2
100
AcDbSymbolTableRecord
100
AcDbLayerTableRecord
  2
FO0001_1
 70
     0
 62
     7
  6
Continuous
370
    -3
390
F
  0
LAYER
  5
A1B
330
2
100
AcDbSymbolTableRecord
100
AcDbLayerTableRecord
  2
TP1791_5
 70
     0
 62
     7
  6
Continuous
370
    -3
390
F
  0
LAYER
  5
A56
330
2
100
AcDbSymbolTableRecord
100
AcDbLayerTableRecord
  2
PA0001_1
 70
     0
 62
     7
  6
Continuous
370
    -3
390
F
  0
LAYER
  5
CC0
330
2
100
AcDbSymbolTableRecord
100
AcDbLayerTableRecord
  2
ZZ0001_1
 70
     0
 62
     7
  6
Continuous
370
    -3
390
F
  0
LAYER
  5
1445
330
2
100
AcDbSymbolTableRecord
100
AcDbLayerTableRecord
  2
2
 70
     0
 62
     7
  6
Continuous
370
    -3
390
F
  0
LAYER
  5
1446
102
{ACAD_XDICTIONARY
360
1447
102
}
330
2
100
AcDbSymbolTableRecord
100
AcDbLayerTableRecord
  2
本体
 70
     0
 62
     3
  6
Continuous
370
    -3
390
F
  0
LAYER
  5
144A
102
{ACAD_XDICTIONARY
360
144B
102
}
330
2
100
AcDbSymbolTableRecord
100
AcDbLayerTableRecord
  2
寸法線
 70
     0
 62
   250
  6
Continuous
370
     9
390
F
  0
LAYER
  5
144E
102
{ACAD_XDICTIONARY
360
144F
102
}
330
2
100
AcDbSymbolTableRecord
100
AcDbLayerTableRecord
  2
文字
 70
     0
 62
     1
  6
Continuous
370
    -3
390
F
1001
AcAecLayerStandard
1000

1000

  0
LAYER
  5
1452
102
{ACAD_XDICTIONARY
360
1453
102
}
330
2
100
AcDbSymbolTableRecord
100
AcDbLayerTableRecord
  2
SOZO
 70
     0
 62
     1
  6
PHANTOM
370
    -3
390
F
  0
LAYER
  5
1456
330
2
100
AcDbSymbolTableRecord
100
AcDbLayerTableRecord
  2
画層1
 70
     0
 62
     6
  6
Continuous
370
    -3
390
F
1001
AcAecLayerStandard
1000

1000

  0
LAYER
  5
1457
330
2
100
AcDbSymbolTableRecord
100
AcDbLayerTableRecord
  2
中心
 70
     0
 62
     2
  6
CENTER
370
    18
390
F
  0
LAYER
  5
1458
330
2
100
AcDbSymbolTableRecord
100
AcDbLayerTableRecord
  2
DC0001_2
 70
     0
 62
     7
  6
Continuous
370
    -3
390
F
  0
LAYER
  5
2A43
330
2
100
AcDbSymbolTableRecord
100
AcDbLayerTableRecord
  2
F00001_1
 70
     0
 62
     7
  6
Continuous
370
    -3
390
F
  0
LAYER
  5
8CE2
330
2
100
AcDbSymbolTableRecord
100
AcDbLayerTableRecord
  2
_0-0_
 70
     0
 62
     7
  6
Continuous
370
    -3
390
F
  0
LAYER
  5
8CE3
330
2
100
AcDbSymbolTableRecord
100
AcDbLayerTableRecord
  2
_0-7_
 70
     0
 62
     7
  6
Continuous
370
    -3
390
F
  0
LAYER
  5
8EAB
330
2
100
AcDbSymbolTableRecord
100
AcDbLayerTableRecord
  2
中心線
 70
     0
 62
     4
  6
CENTER
370
    -3
390
F
  0
LAYER
  5
9408
330
2
100
AcDbSymbolTableRecord
100
AcDbLayerTableRecord
  2
破線
 70
     0
 62
     3
  6
DASHED
370
    18
390
F
  0
LAYER
  5
B25B
330
2
100
AcDbSymbolTableRecord
100
AcDbLayerTableRecord
  2
_0-1_
 70
     0
 62
     7
  6
Continuous
370
    -3
390
F
  0
LAYER
  5
B25C
330
2
100
AcDbSymbolTableRecord
100
AcDbLayerTableRecord
  2
_0-2_
 70
     0
 62
     7
  6
Continuous
370
    -3
390
F
  0
LAYER
  5
B25D
330
2
100
AcDbSymbolTableRecord
100
AcDbLayerTableRecord
  2
_0-3_
 70
     0
 62
     7
  6
Continuous
370
    -3
390
F
  0
LAYER
  5
B25E
330
2
100
AcDbSymbolTableRecord
100
AcDbLayerTableRecord
  2
_0-4_
 70
     0
 62
     7
  6
Continuous
370
    -3
390
F
  0
LAYER
  5
B25F
330
2
100
AcDbSymbolTableRecord
100
AcDbLayerTableRecord
  2
_0-5_
 70
     0
 62
     7
  6
Continuous
370
    -3
390
F
  0
LAYER
  5
B260
330
2
100
AcDbSymbolTableRecord
100
AcDbLayerTableRecord
  2
_0-6_
 70
     0
 62
     7
  6
Continuous
370
    -3
390
F
  0
LAYER
  5
B261
330
2
100
AcDbSymbolTableRecord
100
AcDbLayerTableRecord
  2
_0-A_
 70
     0
 62
     7
  6
Continuous
370
    -3
390
F
  0
ENDTAB
  0
TABLE
  2
STYLE
  5
3
330
0
100
AcDbSymbolTable
 70
     4
  0
STYLE
  5
11
330
3
100
AcDbSymbolTableRecord
100
AcDbTextStyleTableRecord
  2
Standard
 70
     0
 40
0.0
 41
0.8
 50
0.0
 71
     0
 42
2.5
  3
romans.shx
  4
extfont2.shx
  0
STYLE
  5
77F
330
3
100
AcDbSymbolTableRecord
100
AcDbTextStyleTableRecord
  2

 70
     1
 40
0.0
 41
1.0
 50
0.0
 71
     0
 42
2.5
  3
ltypeshp.shx
  4

  0
STYLE
  5
783
330
3
100
AcDbSymbolTableRecord
100
AcDbTextStyleTableRecord
  2
STD
 70
     0
 40
0.0
 41
0.6
 50
0.0
 71
     0
 42
231.38771714014
  3
monotxt.shx
  4
extfont2.shx
  0
STYLE
  5
5553
330
3
100
AcDbSymbolTableRecord
100
AcDbTextStyleTableRecord
  2
add
 70
     0
 40
0.0
 41
0.8
 50
0.0
 71
     0
 42
2.5
  3
romans.shx
  4
extfont.shx
  0
ENDTAB
  0
TABLE
  2
VIEW
  5
6
330
0
100
AcDbSymbolTable
 70
     0
  0
ENDTAB
  0
TABLE
  2
UCS
  5
7
330
0
100
AcDbSymbolTable
 70
     0
  0
ENDTAB
  0
TABLE
  2
APPID
  5
9
330
0
100
AcDbSymbolTable
 70
    30
  0
APPID
  5
12
330
9
100
AcDbSymbolTableRecord
100
AcDbRegAppTableRecord
  2
ACAD
 70
     0
  0
APPID
  5
9E
330
9
100
AcDbSymbolTableRecord
100
AcDbRegAppTableRecord
  2
ACAD_PSEXT
 70
     0
  0
APPID
  5
15A
330
9
100
AcDbSymbolTableRecord
100
AcDbRegAppTableRecord
  2
ACAD_DSTYLE_DIMTEXT_FILL
 70
     0
  0
APPID
  5
15B
330
9
100
AcDbSymbolTableRecord
100
AcDbRegAppTableRecord
  2
ACAD_DSTYLE_DIMEXT_LENGTH
 70
     0
  0
APPID
  5
15C
330
9
100
AcDbSymbolTableRecord
100
AcDbRegAppTableRecord
  2
ACAD_DSTYLE_DIMEXT_ENABLED
 70
     0
  0
APPID
  5
15D
330
9
100
AcDbSymbolTableRecord
100
AcDbRegAppTableRecord
  2
ACAD_DSTYLE_DIM_LINETYPE
 70
     0
  0
APPID
  5
15E
330
9
100
AcDbSymbolTableRecord
100
AcDbRegAppTableRecord
  2
ACAD_DSTYLE_DIM_EXT1_LINETYPE
 70
     0
  0
APPID
  5
15F
330
9
100
AcDbSymbolTableRecord
100
AcDbRegAppTableRecord
  2
ACAD_DSTYLE_DIM_EXT2_LINETYPE
 70
     0
  0
APPID
  5
160
330
9
100
AcDbSymbolTableRecord
100
AcDbRegAppTableRecord
  2
ACAD_DSTYLE_DIMJOGGED_JOGANGLE_SYMBOL
 70
     0
  0
APPID
  5
161
330
9
100
AcDbSymbolTableRecord
100
AcDbRegAppTableRecord
  2
ACAD_DSTYLE_DIMARC_LENGTH_SYMBOL
 70
     0
  0
APPID
  5
162
330
9
100
AcDbSymbolTableRecord
100
AcDbRegAppTableRecord
  2
ACAD_MLEADERVER
 70
     0
  0
APPID
  5
163
330
9
100
AcDbSymbolTableRecord
100
AcDbRegAppTableRecord
  2
AcAecLayerStandard
 70
     0
  0
APPID
  5
164
330
9
100
AcDbSymbolTableRecord
100
AcDbRegAppTableRecord
  2
ACAD_DSTYLE_DIMJAG
 70
     0
  0
APPID
  5
165
330
9
100
AcDbSymbolTableRecord
100
AcDbRegAppTableRecord
  2
ACAD_DSTYLE_DIMTALN
 70
     0
  0
APPID
  5
166
330
9
100
AcDbSymbolTableRecord
100
AcDbRegAppTableRecord
  2
DIMEXPLODE
 70
     0
  0
APPID
  5
41A
330
9
100
AcDbSymbolTableRecord
100
AcDbRegAppTableRecord
  2
AcadAnnoPO
 70
     0
  0
APPID
  5
7AC
330
9
100
AcDbSymbolTableRecord
100
AcDbRegAppTableRecord
  2
AcadAnnotative
 70
     0
  0
APPID
  5
7C9
330
9
100
AcDbSymbolTableRecord
100
AcDbRegAppTableRecord
  2
ACAD_EXEMPT_FROM_CAD_STANDARDS
 70
     0
  0
APPID
  5
7F9
330
9
100
AcDbSymbolTableRecord
100
AcDbRegAppTableRecord
  2
DEKIMAS
 70
     0
  0
APPID
  5
EB1
330
9
100
AcDbSymbolTableRecord
100
AcDbRegAppTableRecord
  2
ASKOBJSC
 70
     0
  0
APPID
  5
EB2
330
9
100
AcDbSymbolTableRecord
100
AcDbRegAppTableRecord
  2
ASKDWGSC
 70
     0
  0
APPID
  5
1043
330
9
100
AcDbSymbolTableRecord
100
AcDbRegAppTableRecord
  2
ACAD_NAV_VCDISPLAY
 70
     0
  0
APPID
  5
145B
330
9
100
AcDbSymbolTableRecord
100
AcDbRegAppTableRecord
  2
ASKLEADERCHILD
 70
     0
  0
APPID
  5
145C
330
9
100
AcDbSymbolTableRecord
100
AcDbRegAppTableRecord
  2
GradientColor1ACI
 70
     0
  0
APPID
  5
145D
330
9
100
AcDbSymbolTableRecord
100
AcDbRegAppTableRecord
  2
GradientColor2ACI
 70
     0
  0
APPID
  5
2A45
330
9
100
AcDbSymbolTableRecord
100
AcDbRegAppTableRecord
  2
ACAD_DSTYLE_DIMRADIAL_EXTENSION
 70
     0
  0
APPID
  5
2A46
330
9
100
AcDbSymbolTableRecord
100
AcDbRegAppTableRecord
  2
ACAD_DSTYLE_DIMFLIPARROW_WHICH_SYMBOL
 70
     0
  0
APPID
  5
46C8
330
9
100
AcDbSymbolTableRecord
100
AcDbRegAppTableRecord
  2
ACAD_DSTYLE_DIMBREAK
 70
     0
  0
APPID
  5
554F
330
9
100
AcDbSymbolTableRecord
100
AcDbRegAppTableRecord
  2
CONTENTBLOCKICON
 70
     0
  0
APPID
  5
8EAC
330
9
100
AcDbSymbolTableRecord
100
AcDbRegAppTableRecord
  2
ACDBBLOCKREPETAG
 70
     0
  0
ENDTAB
  0
TABLE
  2
DIMSTYLE
  5
A
330
0
100
AcDbSymbolTable
 70
    10
100
AcDbDimStyleTable
 71
     5
340
159
340
7AA
340
1459
340
CBF
340
A55
  0
DIMSTYLE
105
159
330
A
100
AcDbSymbolTableRecord
100
AcDbDimStyleTableRecord
  2
ASKSTANDARD
 70
     0
 40
4.999999925494193
 41
3.0
 42
1.0
 43
8.0
 44
1.0
 48
0.000000001
 73
     0
 74
     0
 77
     3
 78
     9
 79
     2
140
3.0
141
0.0
143
0.0005
146
0.5
147
1.0
172
     1
176
     4
177
     4
178
     4
179
     2
271
     2
272
     2
289
     0
340
783
341
71F
342
71F
371
     9
372
     9
1001
ACAD_DSTYLE_DIMJAG
1070
   388
1040
1.5
1001
ACAD_DSTYLE_DIMTALN
1070
   392
1070
     0
1001
ACAD_DSTYLE_DIMEXT_LENGTH
1070
   378
1040
2.0
1001
ACAD_DSTYLE_DIMJOGGED_JOGANGLE_SYMBOL
1070
   384
1040
1.570796326794896
  0
DIMSTYLE
105
7AA
330
A
100
AcDbSymbolTableRecord
100
AcDbDimStyleTableRecord
  2
Standard
 70
     0
340
11
  0
DIMSTYLE
105
7F8
330
A
100
AcDbSymbolTableRecord
100
AcDbDimStyleTableRecord
  2
SYMBOL
 70
     0
 40
4.999999925494193
 41
3.0
 42
1.0
 43
8.0
 44
1.0
 48
0.000000001
 73
     0
 74
     0
 77
     3
 78
     9
 79
     2
140
3.0
141
0.0
143
0.0005
146
0.5
147
1.0
172
     1
176
     4
177
     4
178
     4
179
     2
271
     2
272
     2
289
     0
340
783
341
71F
342
71F
371
     9
372
     9
1001
ACAD_DSTYLE_DIMJAG
1070
   388
1040
1.5
1001
ACAD_DSTYLE_DIMTALN
1070
   392
1070
     0
1001
ACAD_DSTYLE_DIMEXT_LENGTH
1070
   378
1040
2.0
1001
ACAD_DSTYLE_DIMJOGGED_JOGANGLE_SYMBOL
1070
   384
1040
1.570796326794896
  0
DIMSTYLE
105
9B2
330
A
100
AcDbSymbolTableRecord
100
AcDbDimStyleTableRecord
  2
ASKSTANDARDFO0P2
 70
     0
 40
4.999999925494193
 41
3.0
 42
1.0
 43
8.0
 44
1.0
 48
0.000000001
 73
     0
 74
     0
 77
     3
 78
     9
 79
     2
140
3.0
141
0.0
143
0.0005
144
0.2
146
0.5
147
1.0
172
     1
176
     4
177
     4
178
     4
179
     2
271
     2
272
     2
289
     0
340
783
341
71F
342
71F
371
     9
372
     9
1001
ACAD_DSTYLE_DIMJAG
1070
   388
1040
1.5
1001
ACAD_DSTYLE_DIMTALN
1070
   392
1070
     0
1001
ACAD_DSTYLE_DIMEXT_LENGTH
1070
   378
1040
2.0
1001
ACAD_DSTYLE_DIMJOGGED_JOGANGLE_SYMBOL
1070
   384
1040
1.570796326794896
  0
DIMSTYLE
105
A55
330
A
100
AcDbSymbolTableRecord
100
AcDbDimStyleTableRecord
  2
ASKSTANDARDPA0P2
 70
     0
 40
4.999999925494193
 41
3.0
 42
1.0
 43
8.0
 44
1.0
 48
0.000000001
 73
     0
 74
     0
 77
     3
 78
     9
 79
     2
140
3.0
141
0.0
143
0.0005
144
0.2000000029802322
146
0.5
147
1.0
172
     1
176
     4
177
     4
178
     4
179
     2
271
     2
272
     2
289
     0
340
783
341
71F
342
71F
371
     9
372
     9
1001
ACAD_DSTYLE_DIMJAG
1070
   388
1040
1.5
1001
ACAD_DSTYLE_DIMTALN
1070
   392
1070
     0
1001
ACAD_DSTYLE_DIMEXT_LENGTH
1070
   378
1040
2.0
1001
ACAD_DSTYLE_DIMJOGGED_JOGANGLE_SYMBOL
1070
   384
1040
1.570796326794896
  0
DIMSTYLE
105
CBF
330
A
100
AcDbSymbolTableRecord
100
AcDbDimStyleTableRecord
  2
ASKSTANDARDZZ0P2
 70
     0
 40
4.999999925494193
 41
3.0
 42
1.0
 43
8.0
 44
1.0
 48
0.000000001
 73
     0
 74
     0
 77
     3
 78
     9
 79
     2
140
3.0
141
0.0
143
0.0005
144
0.2000000029802322
146
0.5
147
1.0
172
     1
176
     4
177
     4
178
     4
179
     2
271
     2
272
     2
289
     0
340
783
341
71F
342
71F
371
     9
372
     9
1001
ACAD_DSTYLE_DIMJAG
1070
   388
1040
1.5
1001
ACAD_DSTYLE_DIMTALN
1070
   392
1070
     0
1001
ACAD_DSTYLE_DIMEXT_LENGTH
1070
   378
1040
2.0
1001
ACAD_DSTYLE_DIMJOGGED_JOGANGLE_SYMBOL
1070
   384
1040
1.570796326794896
  0
DIMSTYLE
105
1459
102
{ACAD_REACTORS
330
A1E9
330
A1EF
330
A1FF
330
A200
330
A201
330
A202
330
A209
330
A20A
330
A20B
330
A20C
330
A20D
330
A20E
330
A20F
330
A210
330
A211
330
A1DE
330
A1DF
330
A390
330
A391
330
A3AB
330
A3AC
102
}
330
A
100
AcDbSymbolTableRecord
100
AcDbDimStyleTableRecord
  2
ISO-25
 70
     0
 41
2.5
 42
0.625
 43
3.75
 44
1.25
 73
     0
 74
     0
 77
     1
 78
     8
140
2.5
141
2.5
143
0.03937007874016
147
0.625
171
     3
172
     1
271
     2
272
     2
274
     3
283
     0
284
     8
340
11
  0
DIMSTYLE
105
145A
330
A
100
AcDbSymbolTableRecord
100
AcDbDimStyleTableRecord
  2
s8
 70
     0
 40
0.0
 41
10.0
 42
0.0
 43
80.0
 44
8.0
 73
     0
 74
     0
 77
     3
 78
     8
 79
     2
140
24.0
141
0.0
145
1.0
147
8.0
172
     1
178
     3
179
     2
271
     3
272
     3
284
     8
285
     8
286
     8
289
     0
340
11
341
10A1
342
10A1
  0
DIMSTYLE
105
2A44
330
A
100
AcDbSymbolTableRecord
100
AcDbDimStyleTableRecord
  2
ASKSTANDARDAA0P33333
 70
     0
 41
3.0
 42
1.0
 43
8.0
 44
1.0
 48
0.000000001
 73
     0
 74
     0
 77
     3
 78
     9
 79
     2
140
3.0
141
0.0
143
0.0005
144
0.3333333333333333
146
0.5
147
1.0
172
     1
176
     4
177
     4
178
     4
179
     2
271
     2
272
     2
289
     0
340
783
341
71F
342
71F
371
     9
372
     9
1001
ACAD_DSTYLE_DIMJAG
1070
   388
1040
1.5
1001
ACAD_DSTYLE_DIMTALN
1070
   392
1070
     0
1001
ACAD_DSTYLE_DIMEXT_LENGTH
1070
   378
1040
2.0
1001
ACAD_DSTYLE_DIMJOGGED_JOGANGLE_SYMBOL
1070
   384
1040
1.570796326794896
  0
DIMSTYLE
105
46C7
330
A
100
AcDbSymbolTableRecord
100
AcDbDimStyleTableRecord
  2
1-3
 70
     0
 40
6.0
 41
3.0
 42
1.0
 43
8.0
 44
1.0
 48
0.000000001
 73
     0
 74
     0
 77
     3
 78
     8
 79
     2
140
3.0
141
0.0
143
0.0005
144
0.5
146
0.5
147
1.0
172
     1
176
     4
177
     4
178
     4
179
     2
271
     2
272
     2
289
     0
340
783
341
71F
342
71F
371
     9
372
     9
1001
ACAD_DSTYLE_DIMBREAK
1070
   391
1040
3.75
1001
ACAD_DSTYLE_DIMJAG
1070
   388
1040
1.5
1001
ACAD_DSTYLE_DIMTALN
1070
   392
1070
     0
1001
ACAD_DSTYLE_DIMEXT_LENGTH
1070
   378
1040
2.0
1001
ACAD_DSTYLE_DIMJOGGED_JOGANGLE_SYMBOL
1070
   384
1040
1.570796326794896
  0
ENDTAB
  0
TABLE
  2
BLOCK_RECORD
  5
1
330
0
100
AcDbSymbolTable
 70
    45
  0
BLOCK_RECORD
  5
1F
102
{ACAD_XDICTIONARY
360
318
102
}
330
1
100
AcDbSymbolTableRecord
100
AcDbBlockTableRecord
  2
*Model_Space
340
22
  0
BLOCK_RECORD
  5
D2
330
1
100
AcDbSymbolTableRecord
100
AcDbBlockTableRecord
  2
*Paper_Space
340
D3
  0
BLOCK_RECORD
  5
D6
330
1
100
AcDbSymbolTableRecord
100
AcDbBlockTableRecord
  2
*Paper_Space0
340
D7
  0
BLOCK_RECORD
  5
71F
330
1
100
AcDbSymbolTableRecord
100
AcDbBlockTableRecord
  2
_Open30
340
0
102
{BLKREFS
331
E6E6
331
E6E7
331
E6EF
331
E6F0
331
E6F8
331
E6F9
331
E701
331
E702
331
E70A
331
E70B
331
E713
331
E714
331
E71C
331
E71D
331
E725
331
E726
331
E72E
331
E72F
331
E737
331
E738
331
E740
331
E741
331
E749
331
E74A
331
E754
331
E755
331
E75D
331
E75E
331
E766
331
E767
331
E771
331
E772
331
E77A
331
E780
331
E781
331
E789
331
E78A
331
E792
331
E798
331
EB93
331
EB94
331
EB9C
331
EB9D
331
EBA5
331
EBA6
331
EBAC
331
EBAD
331
EBB5
331
EBB6
331
EBBE
331
EBBF
331
EBC9
331
EBCA
331
EBD2
331
EBD3
331
EBDB
331
EBDC
331
EBE3
331
EBEA
331
EBEB
331
EBF5
331
EBF6
102
}
  0
BLOCK_RECORD
  5
7FF
330
1
100
AcDbSymbolTableRecord
100
AcDbBlockTableRecord
  2
D001ｺｶﾞﾀｴﾝｻﾝﾏﾝﾎｰﾙｼﾝ ｷｶｸ
340
0
  0
BLOCK_RECORD
  5
A80
330
1
100
AcDbSymbolTableRecord
100
AcDbBlockTableRecord
  2
_None
340
0
  0
BLOCK_RECORD
  5
AD8
330
1
100
AcDbSymbolTableRecord
100
AcDbBlockTableRecord
  2
_DotSmall
340
0
  0
BLOCK_RECORD
  5
10A1
102
{ACAD_XDICTIONARY
360
10A2
102
}
330
1
100
AcDbSymbolTableRecord
100
AcDbBlockTableRecord
  2
_OPEN
340
0
  0
BLOCK_RECORD
  5
6BE6
330
1
100
AcDbSymbolTableRecord
100
AcDbBlockTableRecord
  2
_Dot
340
0
  0
BLOCK_RECORD
  5
9C16
330
1
100
AcDbSymbolTableRecord
100
AcDbBlockTableRecord
  2
*D12
340
0
  0
BLOCK_RECORD
  5
9C22
330
1
100
AcDbSymbolTableRecord
100
AcDbBlockTableRecord
  2
*D13
340
0
  0
BLOCK_RECORD
  5
9C2E
330
1
100
AcDbSymbolTableRecord
100
AcDbBlockTableRecord
  2
*D14
340
0
  0
BLOCK_RECORD
  5
9C3A
330
1
100
AcDbSymbolTableRecord
100
AcDbBlockTableRecord
  2
*D15
340
0
  0
BLOCK_RECORD
  5
9C43
330
1
100
AcDbSymbolTableRecord
100
AcDbBlockTableRecord
  2
*D16
340
0
  0
BLOCK_RECORD
  5
9C4F
330
1
100
AcDbSymbolTableRecord
100
AcDbBlockTableRecord
  2
*D17
340
0
  0
BLOCK_RECORD
  5
9C59
330
1
100
AcDbSymbolTableRecord
100
AcDbBlockTableRecord
  2
*D18
340
0
  0
BLOCK_RECORD
  5
9C65
330
1
100
AcDbSymbolTableRecord
100
AcDbBlockTableRecord
  2
*D19
340
0
  0
BLOCK_RECORD
  5
9C71
330
1
100
AcDbSymbolTableRecord
100
AcDbBlockTableRecord
  2
*D20
340
0
  0
BLOCK_RECORD
  5
9C7D
330
1
100
AcDbSymbolTableRecord
100
AcDbBlockTableRecord
  2
*D21
340
0
  0
BLOCK_RECORD
  5
9C86
330
1
100
AcDbSymbolTableRecord
100
AcDbBlockTableRecord
  2
*D22
340
0
  0
BLOCK_RECORD
  5
9C92
330
1
100
AcDbSymbolTableRecord
100
AcDbBlockTableRecord
  2
*D23
340
0
  0
BLOCK_RECORD
  5
A21E
330
1
100
AcDbSymbolTableRecord
100
AcDbBlockTableRecord
  2
*D24
340
0
  0
BLOCK_RECORD
  5
A22A
330
1
100
AcDbSymbolTableRecord
100
AcDbBlockTableRecord
  2
*D25
340
0
  0
BLOCK_RECORD
  5
A236
330
1
100
AcDbSymbolTableRecord
100
AcDbBlockTableRecord
  2
*D26
340
0
  0
BLOCK_RECORD
  5
A242
330
1
100
AcDbSymbolTableRecord
100
AcDbBlockTableRecord
  2
*D27
340
0
  0
BLOCK_RECORD
  5
A24E
330
1
100
AcDbSymbolTableRecord
100
AcDbBlockTableRecord
  2
*D28
340
0
  0
BLOCK_RECORD
  5
A25A
330
1
100
AcDbSymbolTableRecord
100
AcDbBlockTableRecord
  2
*D29
340
0
  0
BLOCK_RECORD
  5
A266
330
1
100
AcDbSymbolTableRecord
100
AcDbBlockTableRecord
  2
*D30
340
0
  0
BLOCK_RECORD
  5
A272
330
1
100
AcDbSymbolTableRecord
100
AcDbBlockTableRecord
  2
*D31
340
0
  0
BLOCK_RECORD
  5
A27E
330
1
100
AcDbSymbolTableRecord
100
AcDbBlockTableRecord
  2
*D32
340
0
  0
BLOCK_RECORD
  5
A28A
330
1
100
AcDbSymbolTableRecord
100
AcDbBlockTableRecord
  2
*D33
340
0
  0
BLOCK_RECORD
  5
A296
330
1
100
AcDbSymbolTableRecord
100
AcDbBlockTableRecord
  2
*D34
340
0
  0
BLOCK_RECORD
  5
A2A4
330
1
100
AcDbSymbolTableRecord
100
AcDbBlockTableRecord
  2
*D35
340
0
  0
BLOCK_RECORD
  5
A2B0
330
1
100
AcDbSymbolTableRecord
100
AcDbBlockTableRecord
  2
*D36
340
0
  0
BLOCK_RECORD
  5
A2BC
330
1
100
AcDbSymbolTableRecord
100
AcDbBlockTableRecord
  2
*D37
340
0
  0
BLOCK_RECORD
  5
A2CA
330
1
100
AcDbSymbolTableRecord
100
AcDbBlockTableRecord
  2
*D38
340
0
  0
BLOCK_RECORD
  5
A2D3
330
1
100
AcDbSymbolTableRecord
100
AcDbBlockTableRecord
  2
*D39
340
0
  0
BLOCK_RECORD
  5
A2DF
330
1
100
AcDbSymbolTableRecord
100
AcDbBlockTableRecord
  2
*D40
340
0
  0
BLOCK_RECORD
  5
A3AD
330
1
100
AcDbSymbolTableRecord
100
AcDbBlockTableRecord
  2
*D41
340
0
  0
BLOCK_RECORD
  5
A3B9
330
1
100
AcDbSymbolTableRecord
100
AcDbBlockTableRecord
  2
*D42
340
0
  0
BLOCK_RECORD
  5
A3C5
330
1
100
AcDbSymbolTableRecord
100
AcDbBlockTableRecord
  2
*D43
340
0
  0
BLOCK_RECORD
  5
A3CE
330
1
100
AcDbSymbolTableRecord
100
AcDbBlockTableRecord
  2
*D44
340
0
  0
ENDTAB
  0
ENDSEC
  0
SECTION
  2
BLOCKS
  0
BLOCK
  5
20
330
1F
100
AcDbEntity
  8
0
100
AcDbBlockBegin
  2
*Model_Space
 70
     0
 10
0.0
 20
0.0
 30
0.0
  3
*Model_Space
  1

  0
ENDBLK
  5
21
330
1F
100
AcDbEntity
  8
0
100
AcDbBlockEnd
  0
BLOCK
  5
D4
330
D2
100
AcDbEntity
 67
     1
  8
0
100
AcDbBlockBegin
  2
*Paper_Space
 70
     0
 10
0.0
 20
0.0
 30
0.0
  3
*Paper_Space
  1

  0
ENDBLK
  5
D5
330
D2
100
AcDbEntity
 67
     1
  8
0
100
AcDbBlockEnd
  0
BLOCK
  5
D8
330
D6
100
AcDbEntity
  8
0
100
AcDbBlockBegin
  2
*Paper_Space0
 70
     0
 10
0.0
 20
0.0
 30
0.0
  3
*Paper_Space0
  1

  0
ENDBLK
  5
D9
330
D6
100
AcDbEntity
  8
0
100
AcDbBlockEnd
  0
BLOCK
  5
723
330
71F
100
AcDbEntity
  8
0
100
AcDbBlockBegin
  2
_Open30
 70
     0
 10
0.0
 20
0.0
 30
0.0
  3
_Open30
  1

  0
LINE
  5
720
330
71F
100
AcDbEntity
  8
0
  6
ByBlock
 62
     0
370
    -2
100
AcDbLine
 10
-1.0
 20
0.26794919
 30
0.0
 11
0.0
 21
0.0
 31
0.0
  0
LINE
  5
721
330
71F
100
AcDbEntity
  8
0
  6
ByBlock
 62
     0
370
    -2
100
AcDbLine
 10
0.0
 20
0.0
 30
0.0
 11
-1.0
 21
-0.26794919
 31
0.0
  0
LINE
  5
722
330
71F
100
AcDbEntity
  8
0
  6
ByBlock
 62
     0
370
    -2
100
AcDbLine
 10
0.0
 20
0.0
 30
0.0
 11
-1.0
 21
0.0
 31
0.0
  0
ENDBLK
  5
724
330
71F
100
AcDbEntity
  8
0
100
AcDbBlockEnd
  0
BLOCK
  5
800
330
7FF
100
AcDbEntity
  8
0
 62
     7
100
AcDbBlockBegin
  2
D001ｺｶﾞﾀｴﾝｻﾝﾏﾝﾎｰﾙｼﾝ ｷｶｸ
 70
     0
 10
0.0
 20
0.0
 30
0.0
  3
D001ｺｶﾞﾀｴﾝｻﾝﾏﾝﾎｰﾙｼﾝ ｷｶｸ
  1

  0
LINE
  5
802
330
7FF
100
AcDbEntity
  8
0
  6
Continuous
 62
     7
100
AcDbLine
 10
-9.9999998509884
 20
-36.86311613107501
 30
0.0
 11
-9.9999998509884
 21
-59.99999910593
 31
0.0
1001
DEKIMAS
1000
実線（中）
1040
0.25
1001
DIMEXPLODE
1070
     0
  0
ARC
  5
803
330
7FF
100
AcDbEntity
  8
0
  6
Continuous
 62
     7
100
AcDbCircle
 10
-39.20610196417401
 20
-36.837207111586
 30
0.0
 40
10.0
100
AcDbArc
 50
34.35818250216025
 51
122.6629046316961
1001
DEKIMAS
1000
実線（中）
1040
0.25
1001
DIMEXPLODE
1070
     0
  0
ARC
  5
804
330
7FF
100
AcDbEntity
  8
0
  6
Continuous
 62
     7
100
AcDbCircle
 10
-23.737672832988
 20
-26.262327017995
 30
0.0
 40
8.737672981999597
100
AcDbArc
 50
214.3581825021598
 51
309.4969645690289
1001
DEKIMAS
1000
実線（中）
1040
0.25
1001
DIMEXPLODE
1070
     0
  0
ARC
  5
805
330
7FF
100
AcDbEntity
  8
0
  6
Continuous
 62
     7
100
AcDbCircle
 10
-14.999999850988
 20
-36.86311613107501
 30
0.0
 40
5.0
100
AcDbArc
 50
0.0
 51
129.4969645690292
1001
DEKIMAS
1000
実線（中）
1040
0.25
1001
DIMEXPLODE
1070
     0
  0
ARC
  5
806
330
7FF
100
AcDbEntity
  8
0
  6
Continuous
 62
     7
100
AcDbCircle
 10
-50.000009536743
 20
-19.999999701972
 30
0.0
 40
9.9999998509884
100
AcDbArc
 50
270.0000043257109
 51
302.6629046316959
1001
DEKIMAS
1000
実線（中）
1040
0.25
1001
DIMEXPLODE
1070
     0
  0
ENDBLK
  5
801
330
7FF
100
AcDbEntity
  8
0
 62
     7
100
AcDbBlockEnd
  0
BLOCK
  5
A81
330
A80
100
AcDbEntity
  8
0
 62
     7
100
AcDbBlockBegin
  2
_None
 70
     0
 10
0.0
 20
0.0
 30
0.0
  3
_None
  1

  0
ENDBLK
  5
A82
330
A80
100
AcDbEntity
  8
0
 62
     7
100
AcDbBlockEnd
  0
BLOCK
  5
ADA
330
AD8
100
AcDbEntity
  8
0
 62
     7
100
AcDbBlockBegin
  2
_DotSmall
 70
     0
 10
0.0
 20
0.0
 30
0.0
  3
_DotSmall
  1

  0
LWPOLYLINE
  5
AD9
330
AD8
100
AcDbEntity
  8
0
  6
ByBlock
 62
     0
100
AcDbPolyline
 90
        2
 70
     1
 43
0.5
 10
-0.0625
 20
0.0
 42
1.0
 10
0.0625
 20
0.0
 42
1.0
  0
ENDBLK
  5
ADB
330
AD8
100
AcDbEntity
  8
0
 62
     7
100
AcDbBlockEnd
  0
BLOCK
  5
10A4
330
10A1
100
AcDbEntity
  8
0
100
AcDbBlockBegin
  2
_OPEN
 70
     0
 10
0.0
 20
0.0
 30
0.0
  3
_OPEN
  1

  0
LINE
  5
10A5
330
10A1
100
AcDbEntity
  8
0
  6
ByBlock
 62
     0
100
AcDbLine
 10
-1.0
 20
0.1666666666666666
 30
0.0
 11
0.0
 21
0.0
 31
0.0
  0
LINE
  5
10A6
330
10A1
100
AcDbEntity
  8
0
  6
ByBlock
 62
     0
100
AcDbLine
 10
0.0
 20
0.0
 30
0.0
 11
-1.0
 21
-0.1666666666666666
 31
0.0
  0
LINE
  5
10A7
330
10A1
100
AcDbEntity
  8
0
  6
ByBlock
 62
     0
100
AcDbLine
 10
0.0
 20
0.0
 30
0.0
 11
-1.0
 21
0.0
 31
0.0
  0
ENDBLK
  5
10A8
330
10A1
100
AcDbEntity
  8
0
100
AcDbBlockEnd
  0
BLOCK
  5
6BE9
330
6BE6
100
AcDbEntity
  8
0
100
AcDbBlockBegin
  2
_Dot
 70
     0
 10
0.0
 20
0.0
 30
0.0
  3
_Dot
  1

  0
LWPOLYLINE
  5
6BE7
330
6BE6
100
AcDbEntity
  8
0
  6
ByBlock
 62
     0
100
AcDbPolyline
 90
        2
 70
     1
 43
0.5
 10
-0.25
 20
0.0
 42
1.0
 10
0.25
 20
0.0
 42
1.0
  0
LINE
  5
6BE8
330
6BE6
100
AcDbEntity
  8
0
  6
ByBlock
 62
     0
370
    -2
100
AcDbLine
 10
-0.5
 20
0.0
 30
0.0
 11
-1.0
 21
0.0
 31
0.0
  0
ENDBLK
  5
6BEA
330
6BE6
100
AcDbEntity
  8
0
100
AcDbBlockEnd
  0
BLOCK
  5
9C20
330
9C16
100
AcDbEntity
  8
0
100
AcDbBlockBegin
  2
*D12
 70
     1
 10
0.0
 20
0.0
 30
0.0
  3
*D12
  1

  0
LINE
  5
EB90
330
9C16
100
AcDbEntity
  8
寸法線
 62
     7
370
     9
100
AcDbLine
 10
8843.391406036653
 20
928.0272196870742
 30
0.0
 11
8843.391406036653
 21
991.3755120475466
 31
0.0
  0
LINE
  5
EB91
330
9C16
100
AcDbEntity
  8
寸法線
 62
     7
370
     9
100
AcDbLine
 10
9183.391396499903
 20
928.0272196870706
 30
0.0
 11
9183.391396499903
 21
991.3755120475466
 31
0.0
  0
LINE
  5
EB92
330
9C16
100
AcDbEntity
  8
寸法線
 62
     7
370
     9
100
AcDbLine
 10
8858.391405813135
 20
986.3755121220524
 30
0.0
 11
9168.39139672342
 21
986.3755121220524
 31
0.0
  0
INSERT
  5
EB93
330
9C16
100
AcDbEntity
  8
寸法線
 62
     7
370
     9
100
AcDbBlockReference
  2
_Open30
 10
8843.391406036653
 20
986.3755121220524
 30
0.0
 41
14.99999977648258
 42
14.99999977648258
 43
14.99999977648258
 50
180.0
  0
INSERT
  5
EB94
330
9C16
100
AcDbEntity
  8
寸法線
 62
     7
370
     9
100
AcDbBlockReference
  2
_Open30
 10
9183.391396499903
 20
986.3755121220524
 30
0.0
 41
14.99999977648258
 42
14.99999977648258
 43
14.99999977648258
  0
MTEXT
  5
EB95
330
9C16
100
AcDbEntity
  8
寸法線
 62
     7
370
     9
100
AcDbMText
 10
9013.391401268275
 20
998.8755119357879
 30
0.0
 40
14.99999977648258
 41
0.0
 71
     5
 72
     1
  1
\A1;\U+2205340（口径）
  7
STD
 73
     1
 44
1.0
1001
ACAD
1000
MTEXTBEGIN
1070
    73
1070
     1
1070
    44
1040
1.0
1070
    74
1070
     0
1000
MTEXTEND
  0
POINT
  5
EB96
330
9C16
100
AcDbEntity
  8
Defpoints
 62
     0
100
AcDbPoint
 10
8843.391406036653
 20
923.02721976158
 30
0.0
  0
POINT
  5
EB97
330
9C16
100
AcDbEntity
  8
Defpoints
 62
     0
100
AcDbPoint
 10
9183.391396499903
 20
923.0272197615763
 30
0.0
  0
POINT
  5
EB98
330
9C16
100
AcDbEntity
  8
Defpoints
 62
     0
100
AcDbPoint
 10
9183.391396499903
 20
986.3755121220524
 30
0.0
  0
ENDBLK
  5
9C21
330
9C16
100
AcDbEntity
  8
0
100
AcDbBlockEnd
  0
BLOCK
  5
9C2C
330
9C22
100
AcDbEntity
  8
0
100
AcDbBlockBegin
  2
*D13
 70
     1
 10
0.0
 20
0.0
 30
0.0
  3
*D13
  1

  0
LINE
  5
EB99
330
9C22
100
AcDbEntity
  8
寸法線
 62
     7
370
     9
100
AcDbLine
 10
8793.391396499904
 20
948.0272193890513
 30
0.0
 11
8793.391396499904
 21
1066.188839376136
 31
0.0
  0
LINE
  5
EB9A
330
9C22
100
AcDbEntity
  8
寸法線
 62
     7
370
     9
100
AcDbLine
 10
9233.391396499902
 20
948.0272193890472
 30
0.0
 11
9233.391396499902
 21
1066.188839376136
 31
0.0
  0
LINE
  5
EB9B
330
9C22
100
AcDbEntity
  8
寸法線
 62
     7
370
     9
100
AcDbLine
 10
8808.391396276386
 20
1061.188839450642
 30
0.0
 11
9218.39139672342
 21
1061.188839450642
 31
0.0
  0
INSERT
  5
EB9C
330
9C22
100
AcDbEntity
  8
寸法線
 62
     7
370
     9
100
AcDbBlockReference
  2
_Open30
 10
8793.391396499904
 20
1061.188839450642
 30
0.0
 41
14.99999977648258
 42
14.99999977648258
 43
14.99999977648258
 50
180.0
  0
INSERT
  5
EB9D
330
9C22
100
AcDbEntity
  8
寸法線
 62
     7
370
     9
100
AcDbBlockReference
  2
_Open30
 10
9233.391396499902
 20
1061.188839450642
 30
0.0
 41
14.99999977648258
 42
14.99999977648258
 43
14.99999977648258
  0
MTEXT
  5
EB9E
330
9C22
100
AcDbEntity
  8
寸法線
 62
     7
370
     9
100
AcDbMText
 10
9013.391396499903
 20
1073.688839264377
 30
0.0
 40
14.99999977648258
 41
0.0
 71
     5
 72
     1
  1
\A1;\U+2205440
  7
STD
 73
     1
 44
1.0
1001
ACAD
1000
MTEXTBEGIN
1070
    73
1070
     1
1070
    44
1040
1.0
1070
    74
1070
     0
1000
MTEXTEND
  0
POINT
  5
EB9F
330
9C22
100
AcDbEntity
  8
Defpoints
 62
     0
100
AcDbPoint
 10
8793.391396499904
 20
943.0272194635572
 30
0.0
  0
POINT
  5
EBA0
330
9C22
100
AcDbEntity
  8
Defpoints
 62
     0
100
AcDbPoint
 10
9233.391396499902
 20
943.0272194635531
 30
0.0
  0
POINT
  5
EBA1
330
9C22
100
AcDbEntity
  8
Defpoints
 62
     0
100
AcDbPoint
 10
9233.391396499902
 20
1061.188839450642
 30
0.0
  0
ENDBLK
  5
9C2D
330
9C22
100
AcDbEntity
  8
0
100
AcDbBlockEnd
  0
BLOCK
  5
9C38
330
9C2E
100
AcDbEntity
  8
0
100
AcDbBlockBegin
  2
*D14
 70
     1
 10
0.0
 20
0.0
 30
0.0
  3
*D14
  1

  0
LINE
  5
EBA2
330
9C2E
100
AcDbEntity
  8
寸法線
 62
     7
370
     9
100
AcDbLine
 10
8816.891396499903
 20
953.4450717100522
 30
0.0
 11
8816.891396499903
 21
1029.784257636956
 31
0.0
  0
LINE
  5
EBA3
330
9C2E
100
AcDbEntity
  8
寸法線
 62
     7
370
     9
100
AcDbLine
 10
9209.891396499903
 20
953.4450717100522
 30
0.0
 11
9209.891396499903
 21
1029.784257636956
 31
0.0
  0
LINE
  5
EBA4
330
9C2E
100
AcDbEntity
  8
寸法線
 62
     7
370
     9
100
AcDbLine
 10
8831.891396276386
 20
1024.784257711462
 30
0.0
 11
9194.89139672342
 21
1024.784257711462
 31
0.0
  0
INSERT
  5
EBA5
330
9C2E
100
AcDbEntity
  8
寸法線
 62
     7
370
     9
100
AcDbBlockReference
  2
_Open30
 10
8816.891396499903
 20
1024.784257711462
 30
0.0
 41
14.99999977648258
 42
14.99999977648258
 43
14.99999977648258
 50
180.0
  0
INSERT
  5
EBA6
330
9C2E
100
AcDbEntity
  8
寸法線
 62
     7
370
     9
100
AcDbBlockReference
  2
_Open30
 10
9209.891396499903
 20
1024.784257711462
 30
0.0
 41
14.99999977648258
 42
14.99999977648258
 43
14.99999977648258
  0
MTEXT
  5
EBA7
330
9C2E
100
AcDbEntity
  8
寸法線
 62
     7
370
     9
100
AcDbMText
 10
9013.391396499903
 20
1037.284257525197
 30
0.0
 40
14.99999977648258
 41
0.0
 71
     5
 72
     1
  1
\A1;PCD\U+2205393
  7
STD
 73
     1
 44
1.0
1001
ACAD
1000
MTEXTBEGIN
1070
    73
1070
     1
1070
    44
1040
1.0
1070
    74
1070
     0
1000
MTEXTEND
  0
POINT
  5
EBA8
330
9C2E
100
AcDbEntity
  8
Defpoints
 62
     0
100
AcDbPoint
 10
8816.891396499903
 20
948.4450717845579
 30
0.0
  0
POINT
  5
EBA9
330
9C2E
100
AcDbEntity
  8
Defpoints
 62
     0
100
AcDbPoint
 10
9209.891396499903
 20
948.4450717845579
 30
0.0
  0
POINT
  5
EBAA
330
9C2E
100
AcDbEntity
  8
Defpoints
 62
     0
100
AcDbPoint
 10
9209.891396499903
 20
1024.784257711462
 30
0.0
  0
ENDBLK
  5
9C39
330
9C2E
100
AcDbEntity
  8
0
100
AcDbBlockEnd
  0
BLOCK
  5
9C41
330
9C3A
100
AcDbEntity
  8
0
100
AcDbBlockBegin
  2
*D15
 70
     1
 10
0.0
 20
0.0
 30
0.0
  3
*D15
  1

  0
LINE
  5
EBAB
330
9C3A
100
AcDbEntity
  8
PA0001_1
  6
Continuous
 62
     7
370
     9
100
AcDbLine
 10
9454.408260388188
 20
1881.041993026727
 30
0.0
 11
10041.79341017428
 21
1881.041993026727
 31
0.0
  0
INSERT
  5
EBAC
330
9C3A
100
AcDbEntity
  8
PA0001_1
  6
Continuous
 62
     7
370
     9
100
AcDbBlockReference
  2
_Open30
 10
9439.408260611704
 20
1881.041993026727
 30
0.0
 41
14.99999977648258
 42
14.99999977648258
 43
14.99999977648258
 50
180.0
  0
INSERT
  5
EBAD
330
9C3A
100
AcDbEntity
  8
PA0001_1
  6
Continuous
 62
     7
370
     9
100
AcDbBlockReference
  2
_Open30
 10
10056.79340995076
 20
1881.041993026727
 30
0.0
 41
14.99999977648258
 42
14.99999977648258
 43
14.99999977648258
  0
MTEXT
  5
EBAE
330
9C3A
100
AcDbEntity
  8
PA0001_1
  6
Continuous
 62
     7
100
AcDbMText
 10
9658.676823330134
 20
1893.541992840463
 30
0.0
 40
14.99999977648258
 41
0.0
 71
     5
 72
     1
  1
\A1;\U+2205440
  7
STD
 73
     1
 44
1.0
1001
ACAD
1000
MTEXTBEGIN
1070
    73
1070
     1
1070
    44
1040
1.0
1070
    74
1070
     0
1000
MTEXTEND
  0
POINT
  5
EBAF
330
9C3A
100
AcDbEntity
  8
Defpoints
  6
Continuous
 62
     0
100
AcDbPoint
 10
9439.408260611704
 20
1881.041993026727
 30
0.0
  0
POINT
  5
EBB0
330
9C3A
100
AcDbEntity
  8
Defpoints
  6
Continuous
 62
     0
100
AcDbPoint
 10
10056.79340995076
 20
1881.041993026727
 30
0.0
  0
POINT
  5
EBB1
330
9C3A
100
AcDbEntity
  8
Defpoints
  6
Continuous
 62
     0
100
AcDbPoint
 10
10056.79340995076
 20
1881.041993026727
 30
0.0
  0
ENDBLK
  5
9C42
330
9C3A
100
AcDbEntity
  8
0
100
AcDbBlockEnd
  0
BLOCK
  5
9C4D
330
9C43
100
AcDbEntity
  8
0
100
AcDbBlockBegin
  2
*D16
 70
     1
 10
0.0
 20
0.0
 30
0.0
  3
*D16
  1

  0
LINE
  5
EBB2
330
9C43
100
AcDbEntity
  8
寸法線
 62
     7
370
     9
100
AcDbLine
 10
10061.79340987626
 20
1630.193160135717
 30
0.0
 11
10167.36911679573
 21
1630.193160135717
 31
0.0
  0
LINE
  5
EBB3
330
9C43
100
AcDbEntity
  8
寸法線
 62
     7
370
     9
100
AcDbLine
 10
10061.79340987626
 20
1680.193159390659
 30
0.0
 11
10167.36911679573
 21
1680.193159390659
 31
0.0
  0
LINE
  5
EBB4
330
9C43
100
AcDbEntity
  8
寸法線
 62
     7
370
     9
100
AcDbLine
 10
10162.36911687024
 20
1645.193159912199
 30
0.0
 11
10162.36911687024
 21
1665.193159614176
 31
0.0
  0
INSERT
  5
EBB5
330
9C43
100
AcDbEntity
  8
寸法線
 62
     7
370
     9
100
AcDbBlockReference
  2
_Open30
 10
10162.36911687024
 20
1630.193160135717
 30
0.0
 41
14.99999977648258
 42
14.99999977648258
 43
14.99999977648258
 50
270.0
  0
INSERT
  5
EBB6
330
9C43
100
AcDbEntity
  8
寸法線
 62
     7
370
     9
100
AcDbBlockReference
  2
_Open30
 10
10162.36911687024
 20
1680.193159390659
 30
0.0
 41
14.99999977648258
 42
14.99999977648258
 43
14.99999977648258
 50
90.0
  0
MTEXT
  5
EBB7
330
9C43
100
AcDbEntity
  8
寸法線
 62
     7
370
     9
100
AcDbMText
 10
10149.8691170565
 20
1653.411821907644
 30
0.0
 40
14.99999977648258
 41
0.0
 71
     5
 72
     1
  1
\A1;10
  7
STD
 11
0.0000000000000001
 21
1.0
 31
0.0
 73
     1
 44
1.0
1001
ACAD
1000
MTEXTBEGIN
1070
    73
1070
     1
1070
    44
1040
1.0
1070
    74
1070
     0
1000
MTEXTEND
  0
POINT
  5
EBB8
330
9C43
100
AcDbEntity
  8
Defpoints
 62
     0
100
AcDbPoint
 10
10056.79340995076
 20
1630.193160135717
 30
0.0
  0
POINT
  5
EBB9
330
9C43
100
AcDbEntity
  8
Defpoints
 62
     0
100
AcDbPoint
 10
10056.79340995076
 20
1680.193159390659
 30
0.0
  0
POINT
  5
EBBA
330
9C43
100
AcDbEntity
  8
Defpoints
 62
     0
100
AcDbPoint
 10
10162.36911687024
 20
1680.193159390659
 30
0.0
  0
ENDBLK
  5
9C4E
330
9C43
100
AcDbEntity
  8
0
100
AcDbBlockEnd
  0
BLOCK
  5
9C57
330
9C4F
100
AcDbEntity
  8
0
100
AcDbBlockBegin
  2
*D17
 70
     1
 10
0.0
 20
0.0
 30
0.0
  3
*D17
  1

  0
LINE
  5
EBBB
330
9C4F
100
AcDbEntity
  8
寸法線
 62
     7
370
     9
100
AcDbLine
 10
10061.79340987626
 20
1680.193159390659
 30
0.0
 11
10167.36911679573
 21
1680.193159390659
 31
0.0
  0
LINE
  5
EBBC
330
9C4F
100
AcDbEntity
  8
寸法線
 62
     7
370
     9
100
AcDbLine
 10
10061.79340987626
 20
1730.1931586456
 30
0.0
 11
10167.36911679573
 21
1730.1931586456
 31
0.0
  0
LINE
  5
EBBD
330
9C4F
100
AcDbEntity
  8
寸法線
 62
     7
370
     9
100
AcDbLine
 10
10162.36911687024
 20
1695.193159167141
 30
0.0
 11
10162.36911687024
 21
1715.193158869118
 31
0.0
  0
INSERT
  5
EBBE
330
9C4F
100
AcDbEntity
  8
寸法線
 62
     7
370
     9
100
AcDbBlockReference
  2
_Open30
 10
10162.36911687024
 20
1680.193159390659
 30
0.0
 41
14.99999977648258
 42
14.99999977648258
 43
14.99999977648258
 50
270.0
  0
INSERT
  5
EBBF
330
9C4F
100
AcDbEntity
  8
寸法線
 62
     7
370
     9
100
AcDbBlockReference
  2
_Open30
 10
10162.36911687024
 20
1730.1931586456
 30
0.0
 41
14.99999977648258
 42
14.99999977648258
 43
14.99999977648258
 50
90.0
  0
MTEXT
  5
EBC0
330
9C4F
100
AcDbEntity
  8
寸法線
 62
     7
370
     9
100
AcDbMText
 10
10149.8691170565
 20
1705.072569963036
 30
0.0
 40
14.99999977648258
 41
0.0
 71
     5
 72
     1
  1
\A1;10
  7
STD
 11
0.0000000000000001
 21
1.0
 31
0.0
 73
     1
 44
1.0
1001
ACAD
1000
MTEXTBEGIN
1070
    73
1070
     1
1070
    44
1040
1.0
1070
    74
1070
     0
1000
MTEXTEND
  0
POINT
  5
EBC1
330
9C4F
100
AcDbEntity
  8
Defpoints
 62
     0
100
AcDbPoint
 10
10056.79340995076
 20
1680.193159390659
 30
0.0
  0
POINT
  5
EBC2
330
9C4F
100
AcDbEntity
  8
Defpoints
 62
     0
100
AcDbPoint
 10
10056.79340995076
 20
1730.1931586456
 30
0.0
  0
POINT
  5
EBC3
330
9C4F
100
AcDbEntity
  8
Defpoints
 62
     0
100
AcDbPoint
 10
10162.36911687024
 20
1730.1931586456
 30
0.0
  0
ENDBLK
  5
9C58
330
9C4F
100
AcDbEntity
  8
0
100
AcDbBlockEnd
  0
BLOCK
  5
9C63
330
9C59
100
AcDbEntity
  8
0
100
AcDbBlockBegin
  2
*D18
 70
     1
 10
0.0
 20
0.0
 30
0.0
  3
*D18
  1

  0
LINE
  5
EBC4
330
9C59
100
AcDbEntity
  8
本体
 62
     7
370
     9
100
AcDbLine
 10
9966.641662636902
 20
1745.193158422083
 30
0.0
 11
10167.36911679573
 21
1745.193158422083
 31
0.0
  0
LINE
  5
EBC5
330
9C59
100
AcDbEntity
  8
本体
 62
     7
370
     9
100
AcDbLine
 10
10061.79340987626
 20
1730.1931586456
 30
0.0
 11
10167.36911679573
 21
1730.1931586456
 31
0.0
  0
LINE
  5
EBC6
330
9C59
100
AcDbEntity
  8
本体
 62
     7
370
     9
100
AcDbLine
 10
10162.36911687024
 20
1760.193158198566
 30
0.0
 11
10162.36911687024
 21
1775.193157975049
 31
0.0
  0
LINE
  5
EBC7
330
9C59
100
AcDbEntity
  8
本体
 62
     7
370
     9
100
AcDbLine
 10
10162.36911687024
 20
1715.193158869118
 30
0.0
 11
10162.36911687024
 21
1700.193159092636
 31
0.0
  0
LINE
  5
EBC8
330
9C59
100
AcDbEntity
  8
本体
 62
     7
370
     9
100
AcDbLine
 10
10162.36911687024
 20
1745.193158422083
 30
0.0
 11
10162.36911687024
 21
1730.1931586456
 31
0.0
  0
INSERT
  5
EBC9
330
9C59
100
AcDbEntity
  8
本体
 62
     7
370
     9
100
AcDbBlockReference
  2
_Open30
 10
10162.36911687024
 20
1745.193158422083
 30
0.0
 41
14.99999977648258
 42
14.99999977648258
 43
14.99999977648258
 50
270.0
  0
INSERT
  5
EBCA
330
9C59
100
AcDbEntity
  8
本体
 62
     7
370
     9
100
AcDbBlockReference
  2
_Open30
 10
10162.36911687024
 20
1730.1931586456
 30
0.0
 41
14.99999977648258
 42
14.99999977648258
 43
14.99999977648258
 50
90.0
  0
MTEXT
  5
EBCB
330
9C59
100
AcDbEntity
  8
本体
 62
     7
370
     9
100
AcDbMText
 10
10149.8691170565
 20
1737.693158533843
 30
0.0
 40
14.99999977648258
 41
0.0
 71
     5
 72
     1
  1
\A1;3
  7
STD
 11
0.0000000000000001
 21
1.0
 31
0.0
 73
     1
 44
1.0
1001
ACAD
1000
MTEXTBEGIN
1070
    73
1070
     1
1070
    44
1040
1.0
1070
    74
1070
     0
1000
MTEXTEND
  0
POINT
  5
EBCC
330
9C59
100
AcDbEntity
  8
Defpoints
 62
     0
100
AcDbPoint
 10
9961.641662711407
 20
1745.193158422083
 30
0.0
  0
POINT
  5
EBCD
330
9C59
100
AcDbEntity
  8
Defpoints
 62
     0
100
AcDbPoint
 10
10056.79340995076
 20
1730.1931586456
 30
0.0
  0
POINT
  5
EBCE
330
9C59
100
AcDbEntity
  8
Defpoints
 62
     0
100
AcDbPoint
 10
10162.36911687024
 20
1730.1931586456
 30
0.0
  0
ENDBLK
  5
9C64
330
9C59
100
AcDbEntity
  8
0
100
AcDbBlockEnd
  0
BLOCK
  5
9C6F
330
9C65
100
AcDbEntity
  8
0
100
AcDbBlockBegin
  2
*D19
 70
     1
 10
0.0
 20
0.0
 30
0.0
  3
*D19
  1

  0
LINE
  5
EBCF
330
9C65
100
AcDbEntity
  8
寸法線
 62
     7
370
     9
100
AcDbLine
 10
9596.676756057622
 20
963.3834373396343
 30
0.0
 11
9704.289484053507
 21
963.3834373396343
 31
0.0
  0
LINE
  5
EBD0
330
9C65
100
AcDbEntity
  8
寸法線
 62
     7
370
     9
100
AcDbLine
 10
9653.868738699245
 20
1098.383435327978
 30
0.0
 11
9704.289484053507
 21
1098.383435327978
 31
0.0
  0
LINE
  5
EBD1
330
9C65
100
AcDbEntity
  8
寸法線
 62
     7
370
     9
100
AcDbLine
 10
9699.289484128012
 20
978.3834371161169
 30
0.0
 11
9699.289484128012
 21
1083.383435551495
 31
0.0
  0
INSERT
  5
EBD2
330
9C65
100
AcDbEntity
  8
寸法線
 62
     7
370
     9
100
AcDbBlockReference
  2
_Open30
 10
9699.289484128012
 20
963.3834373396343
 30
0.0
 41
14.99999977648258
 42
14.99999977648258
 43
14.99999977648258
 50
270.0
  0
INSERT
  5
EBD3
330
9C65
100
AcDbEntity
  8
寸法線
 62
     7
370
     9
100
AcDbBlockReference
  2
_Open30
 10
9699.289484128012
 20
1098.383435327978
 30
0.0
 41
14.99999977648258
 42
14.99999977648258
 43
14.99999977648258
 50
90.0
  0
MTEXT
  5
EBD4
330
9C65
100
AcDbEntity
  8
寸法線
 62
     7
370
     9
100
AcDbMText
 10
9686.789484314276
 20
1030.883436333806
 30
0.0
 40
14.99999977648258
 41
0.0
 71
     5
 72
     1
  1
\A1;135
  7
STD
 11
0.0000000000000001
 21
1.0
 31
0.0
 73
     1
 44
1.0
1001
ACAD
1000
MTEXTBEGIN
1070
    73
1070
     1
1070
    44
1040
1.0
1070
    74
1070
     0
1000
MTEXTEND
  0
POINT
  5
EBD5
330
9C65
100
AcDbEntity
  8
Defpoints
 62
     0
100
AcDbPoint
 10
9591.676756132127
 20
963.3834373396343
 30
0.0
  0
POINT
  5
EBD6
330
9C65
100
AcDbEntity
  8
Defpoints
 62
     0
100
AcDbPoint
 10
9648.868738773749
 20
1098.383435327978
 30
0.0
  0
POINT
  5
EBD7
330
9C65
100
AcDbEntity
  8
Defpoints
 62
     0
100
AcDbPoint
 10
9699.289484128012
 20
1098.383435327978
 30
0.0
  0
ENDBLK
  5
9C70
330
9C65
100
AcDbEntity
  8
0
100
AcDbBlockEnd
  0
BLOCK
  5
9C7B
330
9C71
100
AcDbEntity
  8
0
100
AcDbBlockBegin
  2
*D20
 70
     1
 10
0.0
 20
0.0
 30
0.0
  3
*D20
  1

  0
LINE
  5
EBD8
330
9C71
100
AcDbEntity
  8
寸法線
 62
     7
370
     9
100
AcDbLine
 10
9536.426741696628
 20
1092.13343542111
 30
0.0
 11
9536.426741696628
 21
1165.877346231635
 31
0.0
  0
LINE
  5
EBD9
330
9C71
100
AcDbEntity
  8
寸法線
 62
     7
370
     9
100
AcDbLine
 10
9596.426740802558
 20
1092.13343542111
 30
0.0
 11
9596.426740802558
 21
1165.877346231635
 31
0.0
  0
LINE
  5
EBDA
330
9C71
100
AcDbEntity
  8
寸法線
 62
     7
370
     9
100
AcDbLine
 10
9551.426741473109
 20
1160.877346306141
 30
0.0
 11
9581.426741026076
 21
1160.877346306141
 31
0.0
  0
INSERT
  5
EBDB
330
9C71
100
AcDbEntity
  8
寸法線
 62
     7
370
     9
100
AcDbBlockReference
  2
_Open30
 10
9536.426741696628
 20
1160.877346306141
 30
0.0
 41
14.99999977648258
 42
14.99999977648258
 43
14.99999977648258
 50
180.0
  0
INSERT
  5
EBDC
330
9C71
100
AcDbEntity
  8
寸法線
 62
     7
370
     9
100
AcDbBlockReference
  2
_Open30
 10
9596.426740802558
 20
1160.877346306141
 30
0.0
 41
14.99999977648258
 42
14.99999977648258
 43
14.99999977648258
  0
MTEXT
  5
EBDD
330
9C71
100
AcDbEntity
  8
寸法線
 62
     7
370
     9
100
AcDbMText
 10
9565.214034310212
 20
1173.377346119876
 30
0.0
 40
14.99999977648258
 41
0.0
 71
     5
 72
     1
  1
\A1;M60
  7
STD
 73
     1
 44
1.0
1001
ACAD
1000
MTEXTBEGIN
1070
    73
1070
     1
1070
    44
1040
1.0
1070
    74
1070
     0
1000
MTEXTEND
  0
POINT
  5
EBDE
330
9C71
100
AcDbEntity
  8
Defpoints
 62
     0
100
AcDbPoint
 10
9536.426741696628
 20
1087.133435495616
 30
0.0
  0
POINT
  5
EBDF
330
9C71
100
AcDbEntity
  8
Defpoints
 62
     0
100
AcDbPoint
 10
9596.426740802558
 20
1087.133435495616
 30
0.0
  0
POINT
  5
EBE0
330
9C71
100
AcDbEntity
  8
Defpoints
 62
     0
100
AcDbPoint
 10
9596.426740802558
 20
1160.877346306141
 30
0.0
  0
ENDBLK
  5
9C7C
330
9C71
100
AcDbEntity
  8
0
100
AcDbBlockEnd
  0
BLOCK
  5
9C84
330
9C7D
100
AcDbEntity
  8
0
100
AcDbBlockBegin
  2
*D21
 70
     1
 10
0.0
 20
0.0
 30
0.0
  3
*D21
  1

  0
LINE
  5
EBE1
330
9C7D
100
AcDbEntity
  8
寸法線
 62
     7
370
     9
100
AcDbLine
 10
9626.238293364478
 20
1068.571882766046
 30
0.0
 11
9661.772385508939
 21
1033.037790621571
 31
0.0
  0
LINE
  5
EBE2
330
9C7D
100
AcDbEntity
  8
寸法線
 62
     7
370
     9
100
AcDbLine
 10
9607.676740634918
 20
1087.133435495611
 30
0.0
 11
9615.631691804731
 21
1079.178484325794
 31
0.0
  0
INSERT
  5
EBE3
330
9C7D
100
AcDbEntity
  8
寸法線
 62
     7
370
     9
100
AcDbBlockReference
  2
_Open30
 10
9615.631691804731
 20
1079.178484325794
 30
0.0
 41
14.99999977648258
 42
14.99999977648258
 43
14.99999977648258
 50
134.9999999999901
  0
MTEXT
  5
EBE4
330
9C7D
100
AcDbEntity
  8
寸法線
 62
     7
370
     9
100
AcDbMText
 10
9661.772385508941
 20
1050.715459887816
 30
0.0
 40
14.99999977648258
 41
0.0
 71
     5
 72
     1
  1
\A1;R2
  7
STD
 11
0.7071067811864264
 21
-0.7071067811866687
 31
0.0
 73
     1
 44
1.0
1001
ACAD
1000
MTEXTBEGIN
1070
    73
1070
     1
1070
    44
1040
1.0
1070
    74
1070
     0
1000
MTEXTEND
  0
POINT
  5
EBE5
330
9C7D
100
AcDbEntity
  8
Defpoints
 62
     0
100
AcDbPoint
 10
9615.631691804731
 20
1079.178484325794
 30
0.0
  0
POINT
  5
EBE6
330
9C7D
100
AcDbEntity
  8
Defpoints
 62
     0
100
AcDbPoint
 10
9607.676740634918
 20
1087.133435495611
 30
0.0
  0
ENDBLK
  5
9C85
330
9C7D
100
AcDbEntity
  8
0
100
AcDbBlockEnd
  0
BLOCK
  5
9C90
330
9C86
100
AcDbEntity
  8
0
100
AcDbBlockBegin
  2
*D22
 70
     1
 10
0.0
 20
0.0
 30
0.0
  3
*D22
  1

  0
LINE
  5
EBE7
330
9C86
100
AcDbEntity
  8
寸法線
 62
     7
370
     9
100
AcDbLine
 10
9233.391396499902
 20
1077.618839205817
 30
0.0
 11
9233.391396499902
 21
1161.186348833771
 31
0.0
  0
LINE
  5
EBE8
330
9C86
100
AcDbEntity
  8
寸法線
 62
     7
370
     9
100
AcDbLine
 10
8793.391396499904
 20
1077.618839205817
 30
0.0
 11
8793.391396499904
 21
1161.186348833771
 31
0.0
  0
LINE
  5
EBE9
330
9C86
100
AcDbEntity
  8
寸法線
 62
     7
370
     9
100
AcDbLine
 10
9218.39139672342
 20
1156.186348908276
 30
0.0
 11
8808.391396276386
 21
1156.186348908276
 31
0.0
  0
INSERT
  5
EBEA
330
9C86
100
AcDbEntity
  8
寸法線
 62
     7
370
     9
100
AcDbBlockReference
  2
_Open30
 10
9233.391396499902
 20
1156.186348908276
 30
0.0
 41
14.99999977648258
 42
14.99999977648258
 43
14.99999977648258
  0
INSERT
  5
EBEB
330
9C86
100
AcDbEntity
  8
寸法線
 62
     7
370
     9
100
AcDbBlockReference
  2
_Open30
 10
8793.391396499904
 20
1156.186348908276
 30
0.0
 41
14.99999977648258
 42
14.99999977648258
 43
14.99999977648258
 50
180.0
  0
MTEXT
  5
EBEC
330
9C86
100
AcDbEntity
  8
寸法線
 62
     7
370
     9
100
AcDbMText
 10
9013.391396499903
 20
1168.686348722012
 30
0.0
 40
14.99999977648258
 41
0.0
 71
     5
 72
     1
  1
\A1;φ440
  7
STD
 73
     1
 44
1.0
1001
ACAD
1000
MTEXTBEGIN
1070
    73
1070
     1
1070
    44
1040
1.0
1070
    74
1070
     0
1000
MTEXTEND
  0
POINT
  5
EBED
330
9C86
100
AcDbEntity
  8
Defpoints
 62
     0
100
AcDbPoint
 10
9233.391396499902
 20
1072.618839280322
 30
0.0
  0
POINT
  5
EBEE
330
9C86
100
AcDbEntity
  8
Defpoints
 62
     0
100
AcDbPoint
 10
8793.391396499904
 20
1072.618839280322
 30
0.0
  0
POINT
  5
EBEF
330
9C86
100
AcDbEntity
  8
Defpoints
 62
     0
100
AcDbPoint
 10
8793.391396499904
 20
1156.186348908276
 30
0.0
  0
ENDBLK
  5
9C91
330
9C86
100
AcDbEntity
  8
0
100
AcDbBlockEnd
  0
BLOCK
  5
9C9E
330
9C92
100
AcDbEntity
  8
0
100
AcDbBlockBegin
  2
*D23
 70
     1
 10
0.0
 20
0.0
 30
0.0
  3
*D23
  1

  0
LINE
  5
EBF0
330
9C92
100
AcDbEntity
  8
PA0001_1
  6
Continuous
 62
     7
370
     9
100
AcDbLine
 10
9821.793413452537
 20
1625.193160210223
 30
0.0
 11
9821.793413452537
 21
1525.762211657392
 31
0.0
  0
LINE
  5
EBF1
330
9C92
100
AcDbEntity
  8
PA0001_1
  6
Continuous
 62
     7
370
     9
100
AcDbLine
 10
10056.79340995076
 20
1625.193160210223
 30
0.0
 11
10056.79340995076
 21
1525.762211657392
 31
0.0
  0
LINE
  5
EBF2
330
9C92
100
AcDbEntity
  8
PA0001_1
  6
Continuous
 62
     7
370
     9
100
AcDbLine
 10
10071.79340972724
 20
1530.762211582886
 30
0.0
 11
10086.79340950373
 21
1530.762211582886
 31
0.0
  0
LINE
  5
EBF3
330
9C92
100
AcDbEntity
  8
PA0001_1
  6
Continuous
 62
     7
370
     9
100
AcDbLine
 10
9806.793413676054
 20
1530.762211582886
 30
0.0
 11
9726.958691816761
 21
1530.762211582886
 31
0.0
  0
LINE
  5
EBF4
330
9C92
100
AcDbEntity
  8
PA0001_1
  6
Continuous
 62
     7
370
     9
100
AcDbLine
 10
10056.79340995076
 20
1530.762211582886
 30
0.0
 11
9821.793413452537
 21
1530.762211582886
 31
0.0
  0
INSERT
  5
EBF5
330
9C92
100
AcDbEntity
  8
PA0001_1
  6
Continuous
 62
     7
370
     9
100
AcDbBlockReference
  2
_Open30
 10
10056.79340995076
 20
1530.762211582886
 30
0.0
 41
14.99999977648258
 42
14.99999977648258
 43
14.99999977648258
 50
180.0
  0
INSERT
  5
EBF6
330
9C92
100
AcDbEntity
  8
PA0001_1
  6
Continuous
 62
     7
370
     9
100
AcDbBlockReference
  2
_Open30
 10
9821.793413452537
 20
1530.762211582886
 30
0.0
 41
14.99999977648258
 42
14.99999977648258
 43
14.99999977648258
  0
MTEXT
  5
EBF7
330
9C92
100
AcDbEntity
  8
PA0001_1
  6
Continuous
 62
     7
370
     9
100
AcDbMText
 10
9739.458691630495
 20
1543.262211396622
 30
0.0
 40
14.99999977648258
 41
0.0
 71
     5
 72
     1
  1
\A1;47
  7
STD
 73
     1
 44
1.0
1001
ACAD
1000
MTEXTBEGIN
1070
    73
1070
     1
1070
    44
1040
1.0
1070
    74
1070
     0
1000
MTEXTEND
  0
POINT
  5
EBF8
330
9C92
100
AcDbEntity
  8
Defpoints
  6
Continuous
 62
     0
100
AcDbPoint
 10
9821.793413452537
 20
1630.193160135717
 30
0.0
  0
POINT
  5
EBF9
330
9C92
100
AcDbEntity
  8
Defpoints
  6
Continuous
 62
     0
100
AcDbPoint
 10
10056.79340995076
 20
1630.193160135717
 30
0.0
  0
POINT
  5
EBFA
330
9C92
100
AcDbEntity
  8
Defpoints
  6
Continuous
 62
     0
100
AcDbPoint
 10
10056.79340995076
 20
1530.762211582886
 30
0.0
  0
ENDBLK
  5
9C9F
330
9C92
100
AcDbEntity
  8
0
100
AcDbBlockEnd
  0
BLOCK
  5
A228
330
A21E
100
AcDbEntity
  8
0
100
AcDbBlockBegin
  2
*D24
 70
     1
 10
0.0
 20
0.0
 30
0.0
  3
*D24
  1

  0
LINE
  5
E6F5
330
A21E
100
AcDbEntity
  8
寸法線
 62
     0
370
    -2
100
AcDbLine
 10
2021.79482154753
 20
3568.199572865027
 30
0.0
 11
2021.79482154753
 21
3796.019945889988
 31
0.0
  0
LINE
  5
E6F6
330
A21E
100
AcDbEntity
  8
寸法線
 62
     0
370
    -2
100
AcDbLine
 10
2266.263210957685
 20
3568.201535258199
 30
0.0
 11
2266.263210957685
 21
3796.019945889988
 31
0.0
  0
LINE
  5
E6F7
330
A21E
100
AcDbEntity
  8
寸法線
 62
     0
370
    -2
100
AcDbLine
 10
2061.79482154753
 20
3766.019945889989
 30
0.0
 11
2226.263210957684
 21
3766.019945889989
 31
0.0
  0
INSERT
  5
E6F8
330
A21E
100
AcDbEntity
  8
寸法線
 62
     0
370
    -2
100
AcDbBlockReference
  2
_Open30
 10
2021.79482154753
 20
3766.019945889989
 30
0.0
 41
40.0
 42
40.0
 43
40.0
 50
180.0
  0
INSERT
  5
E6F9
330
A21E
100
AcDbEntity
  8
寸法線
 62
     0
370
    -2
100
AcDbBlockReference
  2
_Open30
 10
2266.263210957685
 20
3766.019945889989
 30
0.0
 41
40.0
 42
40.0
 43
40.0
  0
MTEXT
  5
E6FA
330
A21E
100
AcDbEntity
  8
寸法線
 62
     0
370
     9
100
AcDbMText
 10
2144.029016252607
 20
3801.019945889988
 30
0.0
 40
50.0
 41
0.0
 71
     5
 72
     1
  1
244
  7
STD
 73
     1
 44
1.0
1001
ACAD
1000
MTEXTBEGIN
1070
    73
1070
     1
1070
    44
1040
1.0
1070
    74
1070
     0
1000
MTEXTEND
  0
POINT
  5
E6FB
330
A21E
100
AcDbEntity
  8
Defpoints
 62
     0
100
AcDbPoint
 10
2021.79482154753
 20
3548.199572865028
 30
0.0
  0
POINT
  5
E6FC
330
A21E
100
AcDbEntity
  8
Defpoints
 62
     0
100
AcDbPoint
 10
2266.263210957685
 20
3548.201535258198
 30
0.0
  0
POINT
  5
E6FD
330
A21E
100
AcDbEntity
  8
Defpoints
 62
     0
100
AcDbPoint
 10
2266.263210957685
 20
3766.019945889989
 30
0.0
  0
ENDBLK
  5
A229
330
A21E
100
AcDbEntity
  8
0
100
AcDbBlockEnd
  0
BLOCK
  5
A234
330
A22A
100
AcDbEntity
  8
0
100
AcDbBlockBegin
  2
*D25
 70
     1
 10
0.0
 20
0.0
 30
0.0
  3
*D25
  1

  0
LINE
  5
E6FE
330
A22A
100
AcDbEntity
  8
寸法線
 62
     0
370
    -2
100
AcDbLine
 10
2441.842793985201
 20
3658.209669355812
 30
0.0
 11
2441.842793985201
 21
3879.595388193307
 31
0.0
  0
LINE
  5
E6FF
330
A22A
100
AcDbEntity
  8
寸法線
 62
     0
370
    -2
100
AcDbLine
 10
2821.842799908391
 20
3658.209669355812
 30
0.0
 11
2821.842799908391
 21
3879.595388193307
 31
0.0
  0
LINE
  5
E700
330
A22A
100
AcDbEntity
  8
寸法線
 62
     0
370
    -2
100
AcDbLine
 10
2481.842793985201
 20
3849.595388193307
 30
0.0
 11
2781.842799908391
 21
3849.595388193307
 31
0.0
  0
INSERT
  5
E701
330
A22A
100
AcDbEntity
  8
寸法線
 62
     0
370
    -2
100
AcDbBlockReference
  2
_Open30
 10
2441.842793985201
 20
3849.595388193307
 30
0.0
 41
40.0
 42
40.0
 43
40.0
 50
180.0
  0
INSERT
  5
E702
330
A22A
100
AcDbEntity
  8
寸法線
 62
     0
370
    -2
100
AcDbBlockReference
  2
_Open30
 10
2821.842799908391
 20
3849.595388193307
 30
0.0
 41
40.0
 42
40.0
 43
40.0
  0
MTEXT
  5
E703
330
A22A
100
AcDbEntity
  8
寸法線
 62
     0
370
     9
100
AcDbMText
 10
2631.842796946796
 20
3884.595388193308
 30
0.0
 40
50.0
 41
0.0
 71
     5
 72
     1
  1
{\Fsimplex.shx,extfont.shx|c128;φ380}
  7
STD
 73
     1
 44
1.0
1001
ACAD
1000
MTEXTBEGIN
1070
    73
1070
     1
1070
    44
1040
1.0
1070
    74
1070
     0
1000
MTEXTEND
  0
POINT
  5
E704
330
A22A
100
AcDbEntity
  8
Defpoints
 62
     0
100
AcDbPoint
 10
2441.842793985201
 20
3638.209669355813
 30
0.0
  0
POINT
  5
E705
330
A22A
100
AcDbEntity
  8
Defpoints
 62
     0
100
AcDbPoint
 10
2821.842799908391
 20
3638.209669355813
 30
0.0
  0
POINT
  5
E706
330
A22A
100
AcDbEntity
  8
Defpoints
 62
     0
100
AcDbPoint
 10
2821.842799908391
 20
3849.595388193307
 30
0.0
  0
ENDBLK
  5
A235
330
A22A
100
AcDbEntity
  8
0
100
AcDbBlockEnd
  0
BLOCK
  5
A240
330
A236
100
AcDbEntity
  8
0
100
AcDbBlockBegin
  2
*D26
 70
     1
 10
0.0
 20
0.0
 30
0.0
  3
*D26
  1

  0
LINE
  5
E707
330
A236
100
AcDbEntity
  8
寸法線
 62
     0
370
    -2
100
AcDbLine
 10
2361.842790912156
 20
3641.204562319663
 30
0.0
 11
1692.765642279355
 21
3641.204562319663
 31
0.0
  0
LINE
  5
E708
330
A236
100
AcDbEntity
  8
寸法線
 62
     0
370
    -2
100
AcDbLine
 10
2023.843268520373
 20
1578.199369936417
 30
0.0
 11
1692.765642279355
 21
1578.199369936417
 31
0.0
  0
LINE
  5
E709
330
A236
100
AcDbEntity
  8
寸法線
 62
     0
370
    -2
100
AcDbLine
 10
1722.765642279355
 20
3601.204562319663
 30
0.0
 11
1722.765642279355
 21
1618.199369936417
 31
0.0
  0
INSERT
  5
E70A
330
A236
100
AcDbEntity
  8
寸法線
 62
     0
370
    -2
100
AcDbBlockReference
  2
_Open30
 10
1722.765642279355
 20
3641.204562319663
 30
0.0
 41
40.0
 42
40.0
 43
40.0
 50
90.0
  0
INSERT
  5
E70B
330
A236
100
AcDbEntity
  8
寸法線
 62
     0
370
    -2
100
AcDbBlockReference
  2
_Open30
 10
1722.765642279355
 20
1578.199369936417
 30
0.0
 41
40.0
 42
40.0
 43
40.0
 50
270.0
  0
MTEXT
  5
E70C
330
A236
100
AcDbEntity
  8
寸法線
 62
     0
370
     9
100
AcDbMText
 10
1687.765642279355
 20
2609.701966128041
 30
0.0
 40
50.0
 41
0.0
 71
     5
 72
     1
  1
2063
  7
STD
 11
0.0000000000000001
 21
1.0
 31
0.0
 73
     1
 44
1.0
1001
ACAD
1000
MTEXTBEGIN
1070
    73
1070
     1
1070
    44
1040
1.0
1070
    74
1070
     0
1000
MTEXTEND
  0
POINT
  5
E70D
330
A236
100
AcDbEntity
  8
Defpoints
 62
     0
100
AcDbPoint
 10
2381.842790912156
 20
3641.204562319663
 30
0.0
  0
POINT
  5
E70E
330
A236
100
AcDbEntity
  8
Defpoints
 62
     0
100
AcDbPoint
 10
2043.843268520373
 20
1578.199369936417
 30
0.0
  0
POINT
  5
E70F
330
A236
100
AcDbEntity
  8
Defpoints
 62
     0
100
AcDbPoint
 10
1722.765642279355
 20
1578.199369936417
 30
0.0
  0
ENDBLK
  5
A241
330
A236
100
AcDbEntity
  8
0
100
AcDbBlockEnd
  0
BLOCK
  5
A24C
330
A242
100
AcDbEntity
  8
0
100
AcDbBlockBegin
  2
*D27
 70
     1
 10
0.0
 20
0.0
 30
0.0
  3
*D27
  1

  0
LINE
  5
E710
330
A242
100
AcDbEntity
  8
寸法線
 62
     0
370
    -2
100
AcDbLine
 10
2611.843417185282
 20
3688.19936993612
 30
0.0
 11
1572.155417078353
 21
3688.19936993612
 31
0.0
  0
LINE
  5
E711
330
A242
100
AcDbEntity
  8
寸法線
 62
     0
370
    -2
100
AcDbLine
 10
2023.843268520373
 20
1578.199369936417
 30
0.0
 11
1572.155417078353
 21
1578.199369936417
 31
0.0
  0
LINE
  5
E712
330
A242
100
AcDbEntity
  8
寸法線
 62
     0
370
    -2
100
AcDbLine
 10
1602.155417078353
 20
3648.199369936119
 30
0.0
 11
1602.155417078353
 21
1618.199369936417
 31
0.0
  0
INSERT
  5
E713
330
A242
100
AcDbEntity
  8
寸法線
 62
     0
370
    -2
100
AcDbBlockReference
  2
_Open30
 10
1602.155417078353
 20
3688.19936993612
 30
0.0
 41
40.0
 42
40.0
 43
40.0
 50
90.0
  0
INSERT
  5
E714
330
A242
100
AcDbEntity
  8
寸法線
 62
     0
370
    -2
100
AcDbBlockReference
  2
_Open30
 10
1602.155417078353
 20
1578.199369936417
 30
0.0
 41
40.0
 42
40.0
 43
40.0
 50
270.0
  0
MTEXT
  5
E715
330
A242
100
AcDbEntity
  8
寸法線
 62
     0
370
     9
100
AcDbMText
 10
1567.155417078352
 20
2633.199369936269
 30
0.0
 40
50.0
 41
0.0
 71
     5
 72
     1
  1
2110
  7
STD
 11
0.0000000000000001
 21
1.0
 31
0.0
 73
     1
 44
1.0
1001
ACAD
1000
MTEXTBEGIN
1070
    73
1070
     1
1070
    44
1040
1.0
1070
    74
1070
     0
1000
MTEXTEND
  0
POINT
  5
E716
330
A242
100
AcDbEntity
  8
Defpoints
 62
     0
100
AcDbPoint
 10
2631.843417185283
 20
3688.19936993612
 30
0.0
  0
POINT
  5
E717
330
A242
100
AcDbEntity
  8
Defpoints
 62
     0
100
AcDbPoint
 10
2043.843268520373
 20
1578.199369936417
 30
0.0
  0
POINT
  5
E718
330
A242
100
AcDbEntity
  8
Defpoints
 62
     0
100
AcDbPoint
 10
1602.155417078353
 20
1578.199369936417
 30
0.0
  0
ENDBLK
  5
A24D
330
A242
100
AcDbEntity
  8
0
100
AcDbBlockEnd
  0
BLOCK
  5
A258
330
A24E
100
AcDbEntity
  8
0
100
AcDbBlockBegin
  2
*D28
 70
     1
 10
0.0
 20
0.0
 30
0.0
  3
*D28
  1

  0
LINE
  5
E719
330
A24E
100
AcDbEntity
  8
寸法線
 62
     0
370
    -2
100
AcDbLine
 10
1986.843417185937
 20
3408.199369936119
 30
0.0
 11
1799.017469301533
 21
3408.199369936119
 31
0.0
  0
LINE
  5
E71A
330
A24E
100
AcDbEntity
  8
寸法線
 62
     0
370
    -2
100
AcDbLine
 10
2023.843268520373
 20
1578.199369936417
 30
0.0
 11
1799.017469301532
 21
1578.199369936417
 31
0.0
  0
LINE
  5
E71B
330
A24E
100
AcDbEntity
  8
寸法線
 62
     0
370
    -2
100
AcDbLine
 10
1829.017469301533
 20
3368.19936993612
 30
0.0
 11
1829.017469301532
 21
1618.199369936417
 31
0.0
  0
INSERT
  5
E71C
330
A24E
100
AcDbEntity
  8
寸法線
 62
     0
370
    -2
100
AcDbBlockReference
  2
_Open30
 10
1829.017469301533
 20
3408.199369936119
 30
0.0
 41
40.0
 42
40.0
 43
40.0
 50
90.0
  0
INSERT
  5
E71D
330
A24E
100
AcDbEntity
  8
寸法線
 62
     0
370
    -2
100
AcDbBlockReference
  2
_Open30
 10
1829.017469301532
 20
1578.199369936417
 30
0.0
 41
40.0
 42
40.0
 43
40.0
 50
270.0
  0
MTEXT
  5
E71E
330
A24E
100
AcDbEntity
  8
寸法線
 62
     0
370
     9
100
AcDbMText
 10
1794.017469301532
 20
2493.199369936269
 30
0.0
 40
50.0
 41
0.0
 71
     5
 72
     1
  1
1830
  7
STD
 11
0.0000000000000001
 21
1.0
 31
0.0
 73
     1
 44
1.0
1001
ACAD
1000
MTEXTBEGIN
1070
    73
1070
     1
1070
    44
1040
1.0
1070
    74
1070
     0
1000
MTEXTEND
  0
POINT
  5
E71F
330
A24E
100
AcDbEntity
  8
Defpoints
 62
     0
100
AcDbPoint
 10
2006.843417185937
 20
3408.199369936119
 30
0.0
  0
POINT
  5
E720
330
A24E
100
AcDbEntity
  8
Defpoints
 62
     0
100
AcDbPoint
 10
2043.843268520373
 20
1578.199369936417
 30
0.0
  0
POINT
  5
E721
330
A24E
100
AcDbEntity
  8
Defpoints
 62
     0
100
AcDbPoint
 10
1829.017469301532
 20
1578.199369936417
 30
0.0
  0
ENDBLK
  5
A259
330
A24E
100
AcDbEntity
  8
0
100
AcDbBlockEnd
  0
BLOCK
  5
A264
330
A25A
100
AcDbEntity
  8
0
100
AcDbBlockBegin
  2
*D29
 70
     1
 10
0.0
 20
0.0
 30
0.0
  3
*D29
  1

  0
LINE
  5
E722
330
A25A
100
AcDbEntity
  8
寸法線
 62
     0
370
    -2
100
AcDbLine
 10
1986.843417185282
 20
3253.199369936119
 30
0.0
 11
1897.781625705695
 21
3253.199369936119
 31
0.0
  0
LINE
  5
E723
330
A25A
100
AcDbEntity
  8
寸法線
 62
     0
370
    -2
100
AcDbLine
 10
2016.843417185362
 20
1578.199369936119
 30
0.0
 11
1897.781625705695
 21
1578.199369936119
 31
0.0
  0
LINE
  5
E724
330
A25A
100
AcDbEntity
  8
寸法線
 62
     0
370
    -2
100
AcDbLine
 10
1927.781625705695
 20
3213.199369936119
 30
0.0
 11
1927.781625705694
 21
1618.199369936119
 31
0.0
  0
INSERT
  5
E725
330
A25A
100
AcDbEntity
  8
寸法線
 62
     0
370
    -2
100
AcDbBlockReference
  2
_Open30
 10
1927.781625705695
 20
3253.199369936119
 30
0.0
 41
40.0
 42
40.0
 43
40.0
 50
90.0
  0
INSERT
  5
E726
330
A25A
100
AcDbEntity
  8
寸法線
 62
     0
370
    -2
100
AcDbBlockReference
  2
_Open30
 10
1927.781625705694
 20
1578.199369936119
 30
0.0
 41
40.0
 42
40.0
 43
40.0
 50
270.0
  0
MTEXT
  5
E727
330
A25A
100
AcDbEntity
  8
寸法線
 62
     0
370
     9
100
AcDbMText
 10
1892.781625705694
 20
2415.69936993612
 30
0.0
 40
50.0
 41
0.0
 71
     5
 72
     1
  1
1675
  7
STD
 11
0.0000000000000001
 21
1.0
 31
0.0
 73
     1
 44
1.0
1001
ACAD
1000
MTEXTBEGIN
1070
    73
1070
     1
1070
    44
1040
1.0
1070
    74
1070
     0
1000
MTEXTEND
  0
POINT
  5
E728
330
A25A
100
AcDbEntity
  8
Defpoints
 62
     0
100
AcDbPoint
 10
2006.843417185283
 20
3253.199369936119
 30
0.0
  0
POINT
  5
E729
330
A25A
100
AcDbEntity
  8
Defpoints
 62
     0
100
AcDbPoint
 10
2036.843417185362
 20
1578.199369936119
 30
0.0
  0
POINT
  5
E72A
330
A25A
100
AcDbEntity
  8
Defpoints
 62
     0
100
AcDbPoint
 10
1927.781625705694
 20
1578.199369936119
 30
0.0
  0
ENDBLK
  5
A265
330
A25A
100
AcDbEntity
  8
0
100
AcDbBlockEnd
  0
BLOCK
  5
A270
330
A266
100
AcDbEntity
  8
0
100
AcDbBlockBegin
  2
*D30
 70
     1
 10
0.0
 20
0.0
 30
0.0
  3
*D30
  1

  0
LINE
  5
E72B
330
A266
100
AcDbEntity
  8
寸法線
 62
     0
370
    -2
100
AcDbLine
 10
3155.930137550149
 20
3418.199369936119
 30
0.0
 11
3119.415771650308
 21
3418.199369936119
 31
0.0
  0
LINE
  5
E72C
330
A266
100
AcDbEntity
  8
寸法線
 62
     0
370
    -2
100
AcDbLine
 10
3161.003289139288
 20
1585.199369936119
 30
0.0
 11
3119.415771650307
 21
1585.199369936119
 31
0.0
  0
LINE
  5
E72D
330
A266
100
AcDbEntity
  8
寸法線
 62
     0
370
    -2
100
AcDbLine
 10
3149.415771650307
 20
3378.199369936119
 30
0.0
 11
3149.415771650307
 21
1625.199369936119
 31
0.0
  0
INSERT
  5
E72E
330
A266
100
AcDbEntity
  8
寸法線
 62
     0
370
    -2
100
AcDbBlockReference
  2
_Open30
 10
3149.415771650307
 20
3418.199369936119
 30
0.0
 41
40.0
 42
40.0
 43
40.0
 50
90.0
  0
INSERT
  5
E72F
330
A266
100
AcDbEntity
  8
寸法線
 62
     0
370
    -2
100
AcDbBlockReference
  2
_Open30
 10
3149.415771650307
 20
1585.199369936119
 30
0.0
 41
40.0
 42
40.0
 43
40.0
 50
270.0
  0
MTEXT
  5
E730
330
A266
100
AcDbEntity
  8
寸法線
 62
     0
370
     9
100
AcDbMText
 10
3114.415771650306
 20
2501.69936993612
 30
0.0
 40
50.0
 41
0.0
 71
     5
 72
     1
  1
1833
  7
STD
 11
0.0000000000000001
 21
1.0
 31
0.0
 73
     1
 44
1.0
1001
ACAD
1000
MTEXTBEGIN
1070
    73
1070
     1
1070
    44
1040
1.0
1070
    74
1070
     0
1000
MTEXTEND
  0
POINT
  5
E731
330
A266
100
AcDbEntity
  8
Defpoints
 62
     0
100
AcDbPoint
 10
3175.930137550149
 20
3418.199369936119
 30
0.0
  0
POINT
  5
E732
330
A266
100
AcDbEntity
  8
Defpoints
 62
     0
100
AcDbPoint
 10
3181.003289139288
 20
1585.199369936119
 30
0.0
  0
POINT
  5
E733
330
A266
100
AcDbEntity
  8
Defpoints
 62
     0
100
AcDbPoint
 10
3149.415771650307
 20
1585.199369936119
 30
0.0
  0
ENDBLK
  5
A271
330
A266
100
AcDbEntity
  8
0
100
AcDbBlockEnd
  0
BLOCK
  5
A27C
330
A272
100
AcDbEntity
  8
0
100
AcDbBlockBegin
  2
*D31
 70
     1
 10
0.0
 20
0.0
 30
0.0
  3
*D31
  1

  0
LINE
  5
E734
330
A272
100
AcDbEntity
  8
寸法線
 62
     0
370
    -2
100
AcDbLine
 10
2898.341386427444
 20
3253.199369936119
 30
0.0
 11
2861.827020527602
 21
3253.199369936119
 31
0.0
  0
LINE
  5
E735
330
A272
100
AcDbEntity
  8
寸法線
 62
     0
370
    -2
100
AcDbLine
 10
2903.414538016583
 20
1585.199369936119
 30
0.0
 11
2861.827020527602
 21
1585.199369936119
 31
0.0
  0
LINE
  5
E736
330
A272
100
AcDbEntity
  8
寸法線
 62
     0
370
    -2
100
AcDbLine
 10
2891.827020527603
 20
3213.199369936119
 30
0.0
 11
2891.827020527602
 21
1625.199369936119
 31
0.0
  0
INSERT
  5
E737
330
A272
100
AcDbEntity
  8
寸法線
 62
     0
370
    -2
100
AcDbBlockReference
  2
_Open30
 10
2891.827020527603
 20
3253.199369936119
 30
0.0
 41
40.0
 42
40.0
 43
40.0
 50
90.0
  0
INSERT
  5
E738
330
A272
100
AcDbEntity
  8
寸法線
 62
     0
370
    -2
100
AcDbBlockReference
  2
_Open30
 10
2891.827020527602
 20
1585.199369936119
 30
0.0
 41
40.0
 42
40.0
 43
40.0
 50
270.0
  0
MTEXT
  5
E739
330
A272
100
AcDbEntity
  8
寸法線
 62
     0
370
     9
100
AcDbMText
 10
2856.827020527602
 20
2419.19936993612
 30
0.0
 40
50.0
 41
0.0
 71
     5
 72
     1
  1
1668
  7
STD
 11
0.0000000000000001
 21
1.0
 31
0.0
 73
     1
 44
1.0
1001
ACAD
1000
MTEXTBEGIN
1070
    73
1070
     1
1070
    44
1040
1.0
1070
    74
1070
     0
1000
MTEXTEND
  0
POINT
  5
E73A
330
A272
100
AcDbEntity
  8
Defpoints
 62
     0
100
AcDbPoint
 10
2918.341386427444
 20
3253.199369936119
 30
0.0
  0
POINT
  5
E73B
330
A272
100
AcDbEntity
  8
Defpoints
 62
     0
100
AcDbPoint
 10
2923.414538016583
 20
1585.199369936119
 30
0.0
  0
POINT
  5
E73C
330
A272
100
AcDbEntity
  8
Defpoints
 62
     0
100
AcDbPoint
 10
2891.827020527602
 20
1585.199369936119
 30
0.0
  0
ENDBLK
  5
A27D
330
A272
100
AcDbEntity
  8
0
100
AcDbBlockEnd
  0
BLOCK
  5
A288
330
A27E
100
AcDbEntity
  8
0
100
AcDbBlockBegin
  2
*D32
 70
     1
 10
0.0
 20
0.0
 30
0.0
  3
*D32
  1

  0
LINE
  5
E73D
330
A27E
100
AcDbEntity
  8
寸法線
 62
     0
370
    -2
100
AcDbLine
 10
2361.842790912156
 20
3641.204562319663
 30
0.0
 11
1799.017469301533
 21
3641.204562319663
 31
0.0
  0
LINE
  5
E73E
330
A27E
100
AcDbEntity
  8
寸法線
 62
     0
370
    -2
100
AcDbLine
 10
1986.843417185937
 20
3408.199369936119
 30
0.0
 11
1799.017469301532
 21
3408.199369936119
 31
0.0
  0
LINE
  5
E73F
330
A27E
100
AcDbEntity
  8
寸法線
 62
     0
370
    -2
100
AcDbLine
 10
1829.017469301533
 20
3601.204562319663
 30
0.0
 11
1829.017469301532
 21
3448.199369936119
 31
0.0
  0
INSERT
  5
E740
330
A27E
100
AcDbEntity
  8
寸法線
 62
     0
370
    -2
100
AcDbBlockReference
  2
_Open30
 10
1829.017469301533
 20
3641.204562319663
 30
0.0
 41
40.0
 42
40.0
 43
40.0
 50
90.0
  0
INSERT
  5
E741
330
A27E
100
AcDbEntity
  8
寸法線
 62
     0
370
    -2
100
AcDbBlockReference
  2
_Open30
 10
1829.017469301532
 20
3408.199369936119
 30
0.0
 41
40.0
 42
40.0
 43
40.0
 50
270.0
  0
MTEXT
  5
E742
330
A27E
100
AcDbEntity
  8
寸法線
 62
     0
370
     9
100
AcDbMText
 10
1794.017469301532
 20
3524.701966127891
 30
0.0
 40
50.0
 41
0.0
 71
     5
 72
     1
  1
233
  7
STD
 11
0.0000000000000001
 21
1.0
 31
0.0
 73
     1
 44
1.0
1001
ACAD
1000
MTEXTBEGIN
1070
    73
1070
     1
1070
    44
1040
1.0
1070
    74
1070
     0
1000
MTEXTEND
  0
POINT
  5
E743
330
A27E
100
AcDbEntity
  8
Defpoints
 62
     0
100
AcDbPoint
 10
2381.842790912156
 20
3641.204562319663
 30
0.0
  0
POINT
  5
E744
330
A27E
100
AcDbEntity
  8
Defpoints
 62
     0
100
AcDbPoint
 10
2006.843417185937
 20
3408.199369936119
 30
0.0
  0
POINT
  5
E745
330
A27E
100
AcDbEntity
  8
Defpoints
 62
     0
100
AcDbPoint
 10
1829.017469301532
 20
3408.199369936119
 30
0.0
  0
ENDBLK
  5
A289
330
A27E
100
AcDbEntity
  8
0
100
AcDbBlockEnd
  0
BLOCK
  5
A294
330
A28A
100
AcDbEntity
  8
0
100
AcDbBlockBegin
  2
*D33
 70
     1
 10
0.0
 20
0.0
 30
0.0
  3
*D33
  1

  0
LINE
  5
E746
330
A28A
100
AcDbEntity
  8
寸法線
 62
     0
370
    -2
100
AcDbLine
 10
2001.795052450576
 20
3548.201535258198
 30
0.0
 11
1925.956778666365
 21
3548.201535258198
 31
0.0
  0
LINE
  5
E747
330
A28A
100
AcDbEntity
  8
寸法線
 62
     0
370
    -2
100
AcDbLine
 10
1986.843417185937
 20
3408.199369936119
 30
0.0
 11
1925.956778666365
 21
3408.199369936119
 31
0.0
  0
LINE
  5
E748
330
A28A
100
AcDbEntity
  8
寸法線
 62
     0
370
    -2
100
AcDbLine
 10
1955.956778666364
 20
3508.201535258198
 30
0.0
 11
1955.956778666364
 21
3448.199369936119
 31
0.0
  0
INSERT
  5
E749
330
A28A
100
AcDbEntity
  8
寸法線
 62
     0
370
    -2
100
AcDbBlockReference
  2
_Open30
 10
1955.956778666364
 20
3548.201535258198
 30
0.0
 41
40.0
 42
40.0
 43
40.0
 50
90.0
  0
INSERT
  5
E74A
330
A28A
100
AcDbEntity
  8
寸法線
 62
     0
370
    -2
100
AcDbBlockReference
  2
_Open30
 10
1955.956778666364
 20
3408.199369936119
 30
0.0
 41
40.0
 42
40.0
 43
40.0
 50
270.0
  0
MTEXT
  5
E74B
330
A28A
100
AcDbEntity
  8
寸法線
 62
     0
370
     9
100
AcDbMText
 10
1920.956778666364
 20
3478.200452597159
 30
0.0
 40
50.0
 41
0.0
 71
     5
 72
     1
  1
140
  7
STD
 11
0.0000000000000001
 21
1.0
 31
0.0
 73
     1
 44
1.0
1001
ACAD
1000
MTEXTBEGIN
1070
    73
1070
     1
1070
    44
1040
1.0
1070
    74
1070
     0
1000
MTEXTEND
  0
POINT
  5
E74C
330
A28A
100
AcDbEntity
  8
Defpoints
 62
     0
100
AcDbPoint
 10
2021.795052450576
 20
3548.201535258198
 30
0.0
  0
POINT
  5
E74D
330
A28A
100
AcDbEntity
  8
Defpoints
 62
     0
100
AcDbPoint
 10
2006.843417185937
 20
3408.199369936119
 30
0.0
  0
POINT
  5
E74E
330
A28A
100
AcDbEntity
  8
Defpoints
 62
     0
100
AcDbPoint
 10
1955.956778666364
 20
3408.199369936119
 30
0.0
  0
ENDBLK
  5
A295
330
A28A
100
AcDbEntity
  8
0
100
AcDbBlockEnd
  0
BLOCK
  5
A2A2
330
A296
100
AcDbEntity
  8
0
100
AcDbBlockBegin
  2
*D34
 70
     1
 10
0.0
 20
0.0
 30
0.0
  3
*D34
  1

  0
LINE
  5
E74F
330
A296
100
AcDbEntity
  8
寸法線
 62
     0
370
    -2
100
AcDbLine
 10
2006.843417185941
 20
3438.189151726452
 30
0.0
 11
2006.843417185941
 21
3796.019945889988
 31
0.0
  0
LINE
  5
E750
330
A296
100
AcDbEntity
  8
寸法線
 62
     0
370
    -2
100
AcDbLine
 10
2021.79482154753
 20
3568.199572865027
 30
0.0
 11
2021.79482154753
 21
3796.019945889988
 31
0.0
  0
LINE
  5
E751
330
A296
100
AcDbEntity
  8
寸法線
 62
     0
370
    -2
100
AcDbLine
 10
2061.79482154753
 20
3766.019945889989
 30
0.0
 11
2101.79482154753
 21
3766.019945889989
 31
0.0
  0
LINE
  5
E752
330
A296
100
AcDbEntity
  8
寸法線
 62
     0
370
    -2
100
AcDbLine
 10
1966.843417185941
 20
3766.019945889989
 30
0.0
 11
1811.843417185941
 21
3766.019945889989
 31
0.0
  0
LINE
  5
E753
330
A296
100
AcDbEntity
  8
寸法線
 62
     0
370
    -2
100
AcDbLine
 10
2021.79482154753
 20
3766.019945889989
 30
0.0
 11
2006.843417185941
 21
3766.019945889989
 31
0.0
  0
INSERT
  5
E754
330
A296
100
AcDbEntity
  8
寸法線
 62
     0
370
    -2
100
AcDbBlockReference
  2
_Open30
 10
2021.79482154753
 20
3766.019945889989
 30
0.0
 41
40.0
 42
40.0
 43
40.0
 50
180.0
  0
INSERT
  5
E755
330
A296
100
AcDbEntity
  8
寸法線
 62
     0
370
    -2
100
AcDbBlockReference
  2
_Open30
 10
2006.843417185941
 20
3766.019945889989
 30
0.0
 41
40.0
 42
40.0
 43
40.0
  0
MTEXT
  5
E756
330
A296
100
AcDbEntity
  8
寸法線
 62
     0
370
     9
100
AcDbMText
 10
1846.84341718594
 20
3801.019945889988
 30
0.0
 40
50.0
 41
0.0
 71
     5
 72
     1
  1
15
  7
STD
 73
     1
 44
1.0
1001
ACAD
1000
MTEXTBEGIN
1070
    73
1070
     1
1070
    44
1040
1.0
1070
    74
1070
     0
1000
MTEXTEND
  0
POINT
  5
E757
330
A296
100
AcDbEntity
  8
Defpoints
 62
     0
100
AcDbPoint
 10
2006.843417185941
 20
3418.189151726453
 30
0.0
  0
POINT
  5
E758
330
A296
100
AcDbEntity
  8
Defpoints
 62
     0
100
AcDbPoint
 10
2021.79482154753
 20
3548.199572865028
 30
0.0
  0
POINT
  5
E759
330
A296
100
AcDbEntity
  8
Defpoints
 62
     0
100
AcDbPoint
 10
2021.79482154753
 20
3766.019945889989
 30
0.0
  0
ENDBLK
  5
A2A3
330
A296
100
AcDbEntity
  8
0
100
AcDbBlockEnd
  0
BLOCK
  5
A2AE
330
A2A4
100
AcDbEntity
  8
0
100
AcDbBlockBegin
  2
*D35
 70
     1
 10
0.0
 20
0.0
 30
0.0
  3
*D35
  1

  0
LINE
  5
E75A
330
A2A4
100
AcDbEntity
  8
寸法線
 62
     0
370
    -2
100
AcDbLine
 10
2381.842790912156
 20
3686.204522868764
 30
0.0
 11
2381.842790912156
 21
4053.220985197039
 31
0.0
  0
LINE
  5
E75B
330
A2A4
100
AcDbEntity
  8
寸法線
 62
     0
370
    -2
100
AcDbLine
 10
2881.842802982097
 20
3686.204522868764
 30
0.0
 11
2881.842802982097
 21
4053.220985197039
 31
0.0
  0
LINE
  5
E75C
330
A2A4
100
AcDbEntity
  8
寸法線
 62
     0
370
    -2
100
AcDbLine
 10
2421.842790912157
 20
4023.22098519704
 30
0.0
 11
2841.842802982097
 21
4023.22098519704
 31
0.0
  0
INSERT
  5
E75D
330
A2A4
100
AcDbEntity
  8
寸法線
 62
     0
370
    -2
100
AcDbBlockReference
  2
_Open30
 10
2381.842790912156
 20
4023.22098519704
 30
0.0
 41
40.0
 42
40.0
 43
40.0
 50
180.0
  0
INSERT
  5
E75E
330
A2A4
100
AcDbEntity
  8
寸法線
 62
     0
370
    -2
100
AcDbBlockReference
  2
_Open30
 10
2881.842802982097
 20
4023.22098519704
 30
0.0
 41
40.0
 42
40.0
 43
40.0
  0
MTEXT
  5
E75F
330
A2A4
100
AcDbEntity
  8
寸法線
 62
     0
370
     9
100
AcDbMText
 10
2631.842796947127
 20
4058.22098519704
 30
0.0
 40
50.0
 41
0.0
 71
     5
 72
     1
  1
{\Fsimplex.shx,extfont.shx|c128;φ500}
  7
STD
 73
     1
 44
1.0
1001
ACAD
1000
MTEXTBEGIN
1070
    73
1070
     1
1070
    44
1040
1.0
1070
    74
1070
     0
1000
MTEXTEND
  0
POINT
  5
E760
330
A2A4
100
AcDbEntity
  8
Defpoints
 62
     0
100
AcDbPoint
 10
2381.842790912156
 20
3666.204522868764
 30
0.0
  0
POINT
  5
E761
330
A2A4
100
AcDbEntity
  8
Defpoints
 62
     0
100
AcDbPoint
 10
2881.842802982097
 20
3666.204522868764
 30
0.0
  0
POINT
  5
E762
330
A2A4
100
AcDbEntity
  8
Defpoints
 62
     0
100
AcDbPoint
 10
2881.842802982097
 20
4023.22098519704
 30
0.0
  0
ENDBLK
  5
A2AF
330
A2A4
100
AcDbEntity
  8
0
100
AcDbBlockEnd
  0
BLOCK
  5
A2BA
330
A2B0
100
AcDbEntity
  8
0
100
AcDbBlockBegin
  2
*D36
 70
     1
 10
0.0
 20
0.0
 30
0.0
  3
*D36
  1

  0
LINE
  5
E763
330
A2B0
100
AcDbEntity
  8
寸法線
 62
     0
370
    -2
100
AcDbLine
 10
2411.843417185282
 20
3661.204562319743
 30
0.0
 11
2411.843417185282
 21
3966.115847533496
 31
0.0
  0
LINE
  5
E764
330
A2B0
100
AcDbEntity
  8
寸法線
 62
     0
370
    -2
100
AcDbLine
 10
2851.843417185282
 20
3661.204562319663
 30
0.0
 11
2851.843417185282
 21
3966.115847533496
 31
0.0
  0
LINE
  5
E765
330
A2B0
100
AcDbEntity
  8
寸法線
 62
     0
370
    -2
100
AcDbLine
 10
2451.843417185282
 20
3936.115847533496
 30
0.0
 11
2811.843417185282
 21
3936.115847533496
 31
0.0
  0
INSERT
  5
E766
330
A2B0
100
AcDbEntity
  8
寸法線
 62
     0
370
    -2
100
AcDbBlockReference
  2
_Open30
 10
2411.843417185282
 20
3936.115847533496
 30
0.0
 41
40.0
 42
40.0
 43
40.0
 50
180.0
  0
INSERT
  5
E767
330
A2B0
100
AcDbEntity
  8
寸法線
 62
     0
370
    -2
100
AcDbBlockReference
  2
_Open30
 10
2851.843417185282
 20
3936.115847533496
 30
0.0
 41
40.0
 42
40.0
 43
40.0
  0
MTEXT
  5
E768
330
A2B0
100
AcDbEntity
  8
寸法線
 62
     0
370
     9
100
AcDbMText
 10
2631.843417185283
 20
3971.115847533496
 30
0.0
 40
50.0
 41
0.0
 71
     5
 72
     1
  1
{\Fsimplex.shx,extfont.shx|c128;φ440}
  7
STD
 73
     1
 44
1.0
1001
ACAD
1000
MTEXTBEGIN
1070
    73
1070
     1
1070
    44
1040
1.0
1070
    74
1070
     0
1000
MTEXTEND
  0
POINT
  5
E769
330
A2B0
100
AcDbEntity
  8
Defpoints
 62
     0
100
AcDbPoint
 10
2411.843417185282
 20
3641.204562319743
 30
0.0
  0
POINT
  5
E76A
330
A2B0
100
AcDbEntity
  8
Defpoints
 62
     0
100
AcDbPoint
 10
2851.843417185282
 20
3641.204562319663
 30
0.0
  0
POINT
  5
E76B
330
A2B0
100
AcDbEntity
  8
Defpoints
 62
     0
100
AcDbPoint
 10
2851.843417185282
 20
3936.115847533496
 30
0.0
  0
ENDBLK
  5
A2BB
330
A2B0
100
AcDbEntity
  8
0
100
AcDbBlockEnd
  0
BLOCK
  5
A2C8
330
A2BC
100
AcDbEntity
  8
0
100
AcDbBlockBegin
  2
*D37
 70
     1
 10
0.0
 20
0.0
 30
0.0
  3
*D37
  1

  0
LINE
  5
E76C
330
A2BC
100
AcDbEntity
  8
寸法線
 62
     0
370
    -2
100
AcDbLine
 10
2006.843305787985
 20
2864.440983110977
 30
0.0
 11
2006.843305787985
 21
3041.932479674768
 31
0.0
  0
LINE
  5
E76D
330
A2BC
100
AcDbEntity
  8
寸法線
 62
     0
370
    -2
100
AcDbLine
 10
2013.843305787985
 20
2864.440983110977
 30
0.0
 11
2013.843305787985
 21
3041.932479674768
 31
0.0
  0
LINE
  5
E76E
330
A2BC
100
AcDbEntity
  8
寸法線
 62
     0
370
    -2
100
AcDbLine
 10
1966.843305787985
 20
3011.932479674768
 30
0.0
 11
1926.843305787985
 21
3011.932479674768
 31
0.0
  0
LINE
  5
E76F
330
A2BC
100
AcDbEntity
  8
寸法線
 62
     0
370
    -2
100
AcDbLine
 10
2053.843305787985
 20
3011.932479674768
 30
0.0
 11
2133.843305787985
 21
3011.932479674768
 31
0.0
  0
LINE
  5
E770
330
A2BC
100
AcDbEntity
  8
寸法線
 62
     0
370
    -2
100
AcDbLine
 10
2006.843305787985
 20
3011.932479674768
 30
0.0
 11
2013.843305787985
 21
3011.932479674768
 31
0.0
  0
INSERT
  5
E771
330
A2BC
100
AcDbEntity
  8
寸法線
 62
     0
370
    -2
100
AcDbBlockReference
  2
_Open30
 10
2006.843305787985
 20
3011.932479674768
 30
0.0
 41
40.0
 42
40.0
 43
40.0
  0
INSERT
  5
E772
330
A2BC
100
AcDbEntity
  8
寸法線
 62
     0
370
    -2
100
AcDbBlockReference
  2
_Open30
 10
2013.843305787985
 20
3011.932479674768
 30
0.0
 41
40.0
 42
40.0
 43
40.0
 50
180.0
  0
MTEXT
  5
E773
330
A2BC
100
AcDbEntity
  8
寸法線
 62
     0
370
     9
100
AcDbMText
 10
2113.843305787985
 20
3046.932479674768
 30
0.0
 40
50.0
 41
0.0
 71
     5
 72
     1
  1
7
  7
STD
 73
     1
 44
1.0
1001
ACAD
1000
MTEXTBEGIN
1070
    73
1070
     1
1070
    44
1040
1.0
1070
    74
1070
     0
1000
MTEXTEND
  0
POINT
  5
E774
330
A2BC
100
AcDbEntity
  8
Defpoints
 62
     0
100
AcDbPoint
 10
2006.843305787985
 20
2844.440983110977
 30
0.0
  0
POINT
  5
E775
330
A2BC
100
AcDbEntity
  8
Defpoints
 62
     0
100
AcDbPoint
 10
2013.843305787985
 20
2844.440983110977
 30
0.0
  0
POINT
  5
E776
330
A2BC
100
AcDbEntity
  8
Defpoints
 62
     0
100
AcDbPoint
 10
2013.843305787985
 20
3011.932479674768
 30
0.0
  0
ENDBLK
  5
A2C9
330
A2BC
100
AcDbEntity
  8
0
100
AcDbBlockEnd
  0
BLOCK
  5
A2D1
330
A2CA
100
AcDbEntity
  8
0
100
AcDbBlockBegin
  2
*D38
 70
     1
 10
0.0
 20
0.0
 30
0.0
  3
*D38
  1

  0
LINE
  5
E777
330
A2CA
100
AcDbEntity
  8
寸法線
 62
     0
370
    -2
100
AcDbLine
 10
3351.664863292275
 20
3956.862263344285
 30
0.0
 11
3176.936193897624
 21
3529.620332604954
 31
0.0
  0
MTEXT
  5
E778
330
A2CA
100
AcDbEntity
  8
寸法線
 62
     0
370
     9
100
AcDbMText
 10
3281.595978685667
 20
3877.993130775723
 30
0.0
 40
50.0
 41
0.0
 71
     5
 72
     1
  1
R1400
 11
0.37853611653431
 21
0.9255865213361328
 31
0.0
 73
     1
 44
1.0
1001
ACAD
1000
MTEXTBEGIN
1070
    73
1070
     1
1070
    44
1040
1.0
1070
    74
1070
     0
1000
MTEXTEND
  0
LINE
  5
E779
330
A2CA
100
AcDbEntity
  8
寸法線
 62
     0
370
    -2
100
AcDbLine
 10
2631.84418608822
 20
2196.775741880927
 30
0.0
 11
3161.794749236251
 21
3492.596871751509
 31
0.0
  0
INSERT
  5
E77A
330
A2CA
100
AcDbEntity
  8
寸法線
 62
     0
370
    -2
100
AcDbBlockReference
  2
_Open30
 10
3161.794749236251
 20
3492.596871751509
 30
0.0
 41
40.0
 42
40.0
 43
40.0
 50
247.7569642136645
  0
POINT
  5
E77B
330
A2CA
100
AcDbEntity
  8
Defpoints
 62
     0
100
AcDbPoint
 10
3161.794749236251
 20
3492.596871751509
 30
0.0
  0
POINT
  5
E77C
330
A2CA
100
AcDbEntity
  8
Defpoints
 62
     0
100
AcDbPoint
 10
2631.84418608822
 20
2196.775741880927
 30
0.0
  0
ENDBLK
  5
A2D2
330
A2CA
100
AcDbEntity
  8
0
100
AcDbBlockEnd
  0
BLOCK
  5
A2DD
330
A2D3
100
AcDbEntity
  8
0
100
AcDbBlockBegin
  2
*D39
 70
     1
 10
0.0
 20
0.0
 30
0.0
  3
*D39
  1

  0
LINE
  5
E6E3
330
A2D3
100
AcDbEntity
  8
寸法線
 62
     0
370
    -2
100
AcDbLine
 10
2013.843417185282
 20
1595.199369936119
 30
0.0
 11
2013.843417185282
 21
1249.063104623507
 31
0.0
  0
LINE
  5
E6E4
330
A2D3
100
AcDbEntity
  8
寸法線
 62
     0
370
    -2
100
AcDbLine
 10
3249.843417185282
 20
1595.199369936119
 30
0.0
 11
3249.843417185282
 21
1249.063104623507
 31
0.0
  0
LINE
  5
E6E5
330
A2D3
100
AcDbEntity
  8
寸法線
 62
     0
370
    -2
100
AcDbLine
 10
2053.843417185282
 20
1279.063104623507
 30
0.0
 11
3209.843417185282
 21
1279.063104623507
 31
0.0
  0
INSERT
  5
E6E6
330
A2D3
100
AcDbEntity
  8
寸法線
 62
     0
370
    -2
100
AcDbBlockReference
  2
_Open30
 10
2013.843417185282
 20
1279.063104623507
 30
0.0
 41
40.0
 42
40.0
 43
40.0
 50
180.0
  0
INSERT
  5
E6E7
330
A2D3
100
AcDbEntity
  8
寸法線
 62
     0
370
    -2
100
AcDbBlockReference
  2
_Open30
 10
3249.843417185282
 20
1279.063104623507
 30
0.0
 41
40.0
 42
40.0
 43
40.0
  0
MTEXT
  5
E6E8
330
A2D3
100
AcDbEntity
  8
寸法線
 62
     0
370
     9
100
AcDbMText
 10
2631.843417185283
 20
1314.063104623506
 30
0.0
 40
50.0
 41
0.0
 71
     5
 72
     1
  1
{\Fsimplex.shx,extfont.shx|c128;φ}1236
  7
STD
 73
     1
 44
1.0
1001
ACAD
1000
MTEXTBEGIN
1070
    73
1070
     1
1070
    44
1040
1.0
1070
    74
1070
     0
1000
MTEXTEND
  0
POINT
  5
E6E9
330
A2D3
100
AcDbEntity
  8
Defpoints
 62
     0
100
AcDbPoint
 10
2013.843417185282
 20
1615.199369936119
 30
0.0
  0
POINT
  5
E6EA
330
A2D3
100
AcDbEntity
  8
Defpoints
 62
     0
100
AcDbPoint
 10
3249.843417185282
 20
1615.199369936119
 30
0.0
  0
POINT
  5
E6EB
330
A2D3
100
AcDbEntity
  8
Defpoints
 62
     0
100
AcDbPoint
 10
3249.843417185282
 20
1279.063104623507
 30
0.0
  0
ENDBLK
  5
A2DE
330
A2D3
100
AcDbEntity
  8
0
100
AcDbBlockEnd
  0
BLOCK
  5
A2E9
330
A2DF
100
AcDbEntity
  8
0
100
AcDbBlockBegin
  2
*D40
 70
     1
 10
0.0
 20
0.0
 30
0.0
  3
*D40
  1

  0
LINE
  5
E6EC
330
A2DF
100
AcDbEntity
  8
寸法線
 62
     0
370
    -2
100
AcDbLine
 10
2006.843417185283
 20
1595.199369936119
 30
0.0
 11
2006.843417185283
 21
1110.350279462995
 31
0.0
  0
LINE
  5
E6ED
330
A2DF
100
AcDbEntity
  8
寸法線
 62
     0
370
    -2
100
AcDbLine
 10
3256.843417185282
 20
1595.199372408298
 30
0.0
 11
3256.843417185282
 21
1110.350279462995
 31
0.0
  0
LINE
  5
E6EE
330
A2DF
100
AcDbEntity
  8
寸法線
 62
     0
370
    -2
100
AcDbLine
 10
2046.843417185282
 20
1140.350279462995
 30
0.0
 11
3216.843417185283
 21
1140.350279462995
 31
0.0
  0
INSERT
  5
E6EF
330
A2DF
100
AcDbEntity
  8
寸法線
 62
     0
370
    -2
100
AcDbBlockReference
  2
_Open30
 10
2006.843417185283
 20
1140.350279462995
 30
0.0
 41
40.0
 42
40.0
 43
40.0
 50
180.0
  0
INSERT
  5
E6F0
330
A2DF
100
AcDbEntity
  8
寸法線
 62
     0
370
    -2
100
AcDbBlockReference
  2
_Open30
 10
3256.843417185282
 20
1140.350279462995
 30
0.0
 41
40.0
 42
40.0
 43
40.0
  0
MTEXT
  5
E6F1
330
A2DF
100
AcDbEntity
  8
寸法線
 62
     0
370
     9
100
AcDbMText
 10
2631.843417185283
 20
1175.350279462995
 30
0.0
 40
50.0
 41
0.0
 71
     5
 72
     1
  1
{\Fsimplex.shx,extfont.shx|c128;φ}1250
  7
STD
 73
     1
 44
1.0
1001
ACAD
1000
MTEXTBEGIN
1070
    73
1070
     1
1070
    44
1040
1.0
1070
    74
1070
     0
1000
MTEXTEND
  0
POINT
  5
E6F2
330
A2DF
100
AcDbEntity
  8
Defpoints
 62
     0
100
AcDbPoint
 10
2006.843417185283
 20
1615.199369936119
 30
0.0
  0
POINT
  5
E6F3
330
A2DF
100
AcDbEntity
  8
Defpoints
 62
     0
100
AcDbPoint
 10
3256.843417185282
 20
1615.199372408298
 30
0.0
  0
POINT
  5
E6F4
330
A2DF
100
AcDbEntity
  8
Defpoints
 62
     0
100
AcDbPoint
 10
3256.843417185282
 20
1140.350279462995
 30
0.0
  0
ENDBLK
  5
A2EA
330
A2DF
100
AcDbEntity
  8
0
100
AcDbBlockEnd
  0
BLOCK
  5
A3B7
330
A3AD
100
AcDbEntity
  8
0
100
AcDbBlockBegin
  2
*D41
 70
     1
 10
0.0
 20
0.0
 30
0.0
  3
*D41
  1

  0
LINE
  5
E77D
330
A3AD
100
AcDbEntity
  8
寸法線
 62
     0
370
    -2
100
AcDbLine
 10
5178.89702515021
 20
4051.279298978919
 30
0.0
 11
5178.89702515021
 21
4200.734940870315
 31
0.0
  0
LINE
  5
E77E
330
A3AD
100
AcDbEntity
  8
寸法線
 62
     0
370
    -2
100
AcDbLine
 10
5428.896599708401
 20
4051.279490869121
 30
0.0
 11
5428.896599708401
 21
4200.734940870315
 31
0.0
  0
LINE
  5
E77F
330
A3AD
100
AcDbEntity
  8
寸法線
 62
     0
370
    -2
100
AcDbLine
 10
5218.89702515021
 20
4170.734940870316
 30
0.0
 11
5388.896599708401
 21
4170.734940870316
 31
0.0
  0
INSERT
  5
E780
330
A3AD
100
AcDbEntity
  8
寸法線
 62
     0
370
    -2
100
AcDbBlockReference
  2
_Open30
 10
5178.89702515021
 20
4170.734940870316
 30
0.0
 41
40.0
 42
40.0
 43
40.0
 50
180.0
  0
INSERT
  5
E781
330
A3AD
100
AcDbEntity
  8
寸法線
 62
     0
370
    -2
100
AcDbBlockReference
  2
_Open30
 10
5428.896599708401
 20
4170.734940870316
 30
0.0
 41
40.0
 42
40.0
 43
40.0
  0
MTEXT
  5
E782
330
A3AD
100
AcDbEntity
  8
寸法線
 62
     0
370
     9
100
AcDbMText
 10
5303.896812429306
 20
4200.734940870315
 30
0.0
 40
40.0
 41
0.0
 71
     5
 72
     1
  1
250
  7
STD
 73
     1
 44
1.0
1001
ACAD
1000
MTEXTBEGIN
1070
    73
1070
     1
1070
    44
1040
1.0
1070
    74
1070
     0
1000
MTEXTEND
  0
POINT
  5
E783
330
A3AD
100
AcDbEntity
  8
Defpoints
 62
     0
100
AcDbPoint
 10
5178.89702515021
 20
4031.279298978919
 30
0.0
  0
POINT
  5
E784
330
A3AD
100
AcDbEntity
  8
Defpoints
 62
     0
100
AcDbPoint
 10
5428.896599708401
 20
4031.27949086912
 30
0.0
  0
POINT
  5
E785
330
A3AD
100
AcDbEntity
  8
Defpoints
 62
     0
100
AcDbPoint
 10
5428.896599708401
 20
4170.734940870316
 30
0.0
  0
ENDBLK
  5
A3B8
330
A3AD
100
AcDbEntity
  8
0
100
AcDbBlockEnd
  0
BLOCK
  5
A3C3
330
A3B9
100
AcDbEntity
  8
0
100
AcDbBlockBegin
  2
*D42
 70
     1
 10
0.0
 20
0.0
 30
0.0
  3
*D42
  1

  0
LINE
  5
E786
330
A3B9
100
AcDbEntity
  8
寸法線
 62
     0
370
    -2
100
AcDbLine
 10
5163.896603433706
 20
4062.970357433631
 30
0.0
 11
5163.896603433706
 21
4287.760485067672
 31
0.0
  0
LINE
  5
E787
330
A3B9
100
AcDbEntity
  8
寸法線
 62
     0
370
    -2
100
AcDbLine
 10
5443.896599708406
 20
4062.970678629354
 30
0.0
 11
5443.896599708406
 21
4287.760485067672
 31
0.0
  0
LINE
  5
E788
330
A3B9
100
AcDbEntity
  8
寸法線
 62
     0
370
    -2
100
AcDbLine
 10
5203.896603433706
 20
4257.760485067673
 30
0.0
 11
5403.896599708406
 21
4257.760485067673
 31
0.0
  0
INSERT
  5
E789
330
A3B9
100
AcDbEntity
  8
寸法線
 62
     0
370
    -2
100
AcDbBlockReference
  2
_Open30
 10
5163.896603433706
 20
4257.760485067673
 30
0.0
 41
40.0
 42
40.0
 43
40.0
 50
180.0
  0
INSERT
  5
E78A
330
A3B9
100
AcDbEntity
  8
寸法線
 62
     0
370
    -2
100
AcDbBlockReference
  2
_Open30
 10
5443.896599708406
 20
4257.760485067673
 30
0.0
 41
40.0
 42
40.0
 43
40.0
  0
MTEXT
  5
E78B
330
A3B9
100
AcDbEntity
  8
寸法線
 62
     0
370
     9
100
AcDbMText
 10
5303.896601571056
 20
4287.760485067672
 30
0.0
 40
40.0
 41
0.0
 71
     5
 72
     1
  1
280
  7
STD
 73
     1
 44
1.0
1001
ACAD
1000
MTEXTBEGIN
1070
    73
1070
     1
1070
    44
1040
1.0
1070
    74
1070
     0
1000
MTEXTEND
  0
POINT
  5
E78C
330
A3B9
100
AcDbEntity
  8
Defpoints
 62
     0
100
AcDbPoint
 10
5163.896603433706
 20
4042.97035743363
 30
0.0
  0
POINT
  5
E78D
330
A3B9
100
AcDbEntity
  8
Defpoints
 62
     0
100
AcDbPoint
 10
5443.896599708406
 20
4042.970678629353
 30
0.0
  0
POINT
  5
E78E
330
A3B9
100
AcDbEntity
  8
Defpoints
 62
     0
100
AcDbPoint
 10
5443.896599708406
 20
4257.760485067673
 30
0.0
  0
ENDBLK
  5
A3C4
330
A3B9
100
AcDbEntity
  8
0
100
AcDbBlockEnd
  0
BLOCK
  5
A3CC
330
A3C5
100
AcDbEntity
  8
0
100
AcDbBlockBegin
  2
*D43
 70
     1
 10
0.0
 20
0.0
 30
0.0
  3
*D43
  1

  0
LINE
  5
E78F
330
A3C5
100
AcDbEntity
  8
寸法線
 62
     0
370
    -2
100
AcDbLine
 10
6042.543018619383
 20
3822.023004611065
 30
0.0
 11
5774.946016572789
 21
3684.017322454718
 31
0.0
  0
MTEXT
  5
E790
330
A3C5
100
AcDbEntity
  8
寸法線
 62
     0
370
     9
100
AcDbMText
 10
5969.795032260312
 20
3818.2598517172
 30
0.0
 40
40.0
 41
0.0
 71
     5
 72
     1
  1
R490
 11
0.8887680202730189
 21
0.4583572909204987
 31
0.0
 73
     1
 44
1.0
1001
ACAD
1000
MTEXTBEGIN
1070
    73
1070
     1
1070
    44
1040
1.0
1070
    74
1070
     0
1000
MTEXTEND
  0
LINE
  5
E791
330
A3C5
100
AcDbEntity
  8
寸法線
 62
     0
370
    -2
100
AcDbLine
 10
5303.898965828095
 20
3441.087958266857
 30
0.0
 11
5739.395295761869
 21
3665.683030817898
 31
0.0
  0
INSERT
  5
E792
330
A3C5
100
AcDbEntity
  8
寸法線
 62
     0
370
    -2
100
AcDbBlockReference
  2
_Open30
 10
5739.395295761869
 20
3665.683030817898
 30
0.0
 41
40.0
 42
40.0
 43
40.0
 50
207.2811571874656
  0
POINT
  5
E793
330
A3C5
100
AcDbEntity
  8
Defpoints
 62
     0
100
AcDbPoint
 10
5739.395295761869
 20
3665.683030817898
 30
0.0
  0
POINT
  5
E794
330
A3C5
100
AcDbEntity
  8
Defpoints
 62
     0
100
AcDbPoint
 10
5303.898965828095
 20
3441.087958266857
 30
0.0
  0
ENDBLK
  5
A3CD
330
A3C5
100
AcDbEntity
  8
0
100
AcDbBlockEnd
  0
BLOCK
  5
A3D5
330
A3CE
100
AcDbEntity
  8
0
100
AcDbBlockBegin
  2
*D44
 70
     1
 10
0.0
 20
0.0
 30
0.0
  3
*D44
  1

  0
LINE
  5
E795
330
A3CE
100
AcDbEntity
  8
寸法線
 62
     0
370
    -2
100
AcDbLine
 10
5896.232771502238
 20
4033.526922140532
 30
0.0
 11
5774.08265230791
 21
3911.354813548706
 31
0.0
  0
MTEXT
  5
E796
330
A3CE
100
AcDbEntity
  8
寸法線
 62
     0
370
     9
100
AcDbMText
 10
5828.083462083895
 20
4007.795570353162
 30
0.0
 40
40.0
 41
0.0
 71
     5
 72
     1
  1
R625
 11
0.7070431375636384
 21
0.7071704190816851
 31
0.0
 73
     1
 44
1.0
1001
ACAD
1000
MTEXTBEGIN
1070
    73
1070
     1
1070
    44
1040
1.0
1070
    74
1070
     0
1000
MTEXTEND
  0
LINE
  5
E797
330
A3CE
100
AcDbEntity
  8
寸法線
 62
     0
370
    -2
100
AcDbLine
 10
5303.898965828085
 20
3441.086484859377
 30
0.0
 11
5745.800926805365
 21
3883.067996785438
 31
0.0
  0
INSERT
  5
E798
330
A3CE
100
AcDbEntity
  8
寸法線
 62
     0
370
    -2
100
AcDbBlockReference
  2
_Open30
 10
5745.800926805365
 20
3883.067996785438
 30
0.0
 41
40.0
 42
40.0
 43
40.0
 50
225.0051567132419
  0
POINT
  5
E799
330
A3CE
100
AcDbEntity
  8
Defpoints
 62
     0
100
AcDbPoint
 10
5745.800926805365
 20
3883.067996785438
 30
0.0
  0
POINT
  5
E79A
330
A3CE
100
AcDbEntity
  8
Defpoints
 62
     0
100
AcDbPoint
 10
5303.898965828085
 20
3441.086484859377
 30
0.0
  0
ENDBLK
  5
A3D6
330
A3CE
100
AcDbEntity
  8
0
100
AcDbBlockEnd
  0
ENDSEC
  0
SECTION
  2
ENTITIES
  0
POINT
  5
8D1
330
1F
100
AcDbEntity
  8
PV0001_5
  6
Continuous
 62
     4
100
AcDbPoint
 10
629.0519709915737
 20
258.7840076450139
 30
0.0
  0
POINT
  5
8D2
330
1F
100
AcDbEntity
  8
PV0001_5
  6
Continuous
 62
     4
100
AcDbPoint
 10
629.0519709915737
 20
258.7840076450139
 30
0.0
  0
POINT
  5
8D3
330
1F
100
AcDbEntity
  8
PV0001_5
  6
Continuous
 62
     4
100
AcDbPoint
 10
629.0519709915737
 20
258.7840076450139
 30
0.0
  0
POINT
  5
8D4
330
1F
100
AcDbEntity
  8
PV0001_5
  6
Continuous
 62
     4
100
AcDbPoint
 10
629.0519709915737
 20
258.7840076450139
 30
0.0
  0
POINT
  5
8D5
330
1F
100
AcDbEntity
  8
PV0001_5
  6
Continuous
 62
     4
100
AcDbPoint
 10
829.0519610077936
 20
348.7840063039048
 30
0.0
  0
POINT
  5
8D6
330
1F
100
AcDbEntity
  8
PV0001_5
  6
Continuous
 62
     4
100
AcDbPoint
 10
829.0519610077936
 20
348.7840063039048
 30
0.0
  0
POINT
  5
8D7
330
1F
100
AcDbEntity
  8
PV0001_5
  6
Continuous
 62
     4
100
AcDbPoint
 10
849.0519709915737
 20
348.7840063039048
 30
0.0
  0
POINT
  5
8D8
330
1F
100
AcDbEntity
  8
PV0001_5
  6
Continuous
 62
     4
100
AcDbPoint
 10
432.5519709915737
 20
348.7840063039088
 30
0.0
  0
POINT
  5
8D9
330
1F
100
AcDbEntity
  8
PV0001_5
  6
Continuous
 62
     4
100
AcDbPoint
 10
432.5519709915737
 20
348.7840063039088
 30
0.0
  0
POINT
  5
8DA
330
1F
100
AcDbEntity
  8
PV0001_5
  6
Continuous
 62
     4
100
AcDbPoint
 10
409.0519709915737
 20
348.7840063039088
 30
0.0
  0
POINT
  5
8DB
330
1F
100
AcDbEntity
  8
PV0001_5
  6
Continuous
 62
     4
100
AcDbPoint
 10
799.0519709915737
 20
318.7840067509438
 30
0.0
  0
POINT
  5
8DC
330
1F
100
AcDbEntity
  8
PV0001_5
  6
Continuous
 62
     4
100
AcDbPoint
 10
799.0519709915737
 20
318.7840067509438
 30
0.0
  0
POINT
  5
8DD
330
1F
100
AcDbEntity
  8
PV0001_5
  6
Continuous
 62
     4
100
AcDbPoint
 10
459.0519709915737
 20
318.7840067509438
 30
0.0
  0
POINT
  5
8DE
330
1F
100
AcDbEntity
  8
PV0001_5
  6
Continuous
 62
     4
100
AcDbPoint
 10
459.0519709915737
 20
318.7840067509438
 30
0.0
  0
POINT
  5
8DF
330
1F
100
AcDbEntity
  8
PV0001_5
  6
Continuous
 62
     4
100
AcDbPoint
 10
436.0519610078036
 20
348.7840063039088
 30
0.0
  0
POINT
  5
8E0
330
1F
100
AcDbEntity
  8
PV0001_5
  6
Continuous
 62
     4
100
AcDbPoint
 10
825.5519709915738
 20
348.7840063039088
 30
0.0
  0
POINT
  5
8E1
330
1F
100
AcDbEntity
  8
PV0001_5
  6
Continuous
 62
     4
100
AcDbPoint
 10
822.0519809753437
 20
348.7840063039088
 30
0.0
  0
POINT
  5
8E2
330
1F
100
AcDbEntity
  8
PV0001_5
  6
Continuous
 62
     4
100
AcDbPoint
 10
825.5519709915738
 20
348.7840063039088
 30
0.0
  0
POINT
  5
8E3
330
1F
100
AcDbEntity
  8
PV0001_5
  6
Continuous
 62
     4
100
AcDbPoint
 10
419.0519605607637
 20
348.7840063039088
 30
0.0
  0
POINT
  5
8E4
330
1F
100
AcDbEntity
  8
PV0001_5
  6
Continuous
 62
     4
100
AcDbPoint
 10
839.0519814223837
 20
348.7840063039048
 30
0.0
  0
POINT
  5
8E5
330
1F
100
AcDbEntity
  8
PV0001_5
  6
Continuous
 62
     4
100
AcDbPoint
 10
450.5888397454737
 20
323.4571646566989
 30
0.0
  0
POINT
  5
8E6
330
1F
100
AcDbEntity
  8
PV0001_5
  6
Continuous
 62
     4
100
AcDbPoint
 10
445.9208121764437
 20
325.6528429439198
 30
0.0
  0
POINT
  5
8E7
330
1F
100
AcDbEntity
  8
PV0001_5
  6
Continuous
 62
     4
100
AcDbPoint
 10
419.0519708425637
 20
322.5216792859088
 30
0.0
  0
POINT
  5
8E8
330
1F
100
AcDbEntity
  8
PV0001_5
  6
Continuous
 62
     4
100
AcDbPoint
 10
812.1831298067037
 20
325.6528429439198
 30
0.0
  0
POINT
  5
9B4
330
1F
100
AcDbEntity
  8
FO0001_1
  6
Continuous
 62
     4
100
AcDbPoint
 10
138.7499991528806
 20
1371.249980743644
 30
0.0
1001
ASKOBJSC
1000
1/1
1001
ASKDWGSC
1040
5.0
  0
POINT
  5
9B5
330
1F
100
AcDbEntity
  8
FO0001_1
  6
Continuous
 62
     4
100
AcDbPoint
 10
443.7500327549559
 20
1371.249980743644
 30
0.0
1001
ASKOBJSC
1000
1/1
1001
ASKDWGSC
1040
5.0
  0
POINT
  5
9B6
330
1F
100
AcDbEntity
  8
FO0001_1
  6
Continuous
 62
     4
100
AcDbPoint
 10
517.5000316559951
 20
1371.249980743644
 30
0.0
1001
ASKOBJSC
1000
1/1
1001
ASKDWGSC
1040
5.0
  0
POINT
  5
9B7
330
1F
100
AcDbEntity
  8
FO0001_1
  6
Continuous
 62
     4
100
AcDbPoint
 10
582.500011613935
 20
1371.249980743644
 30
0.0
1001
ASKOBJSC
1000
1/1
1001
ASKDWGSC
1040
5.0
  0
POINT
  5
9B8
330
1F
100
AcDbEntity
  8
FO0001_1
  6
Continuous
 62
     4
100
AcDbPoint
 10
1557.499978011808
 20
212.4999789369199
 30
0.0
1001
ASKOBJSC
1000
1/1
1001
ASKDWGSC
1040
5.0
  0
POINT
  5
9B9
330
1F
100
AcDbEntity
  8
FO0001_1
  6
Continuous
 62
     4
100
AcDbPoint
 10
1492.499978980384
 20
212.4999789369199
 30
0.0
1001
ASKOBJSC
1000
1/1
1001
ASKDWGSC
1040
5.0
  0
POINT
  5
9BA
330
1F
100
AcDbEntity
  8
FO0001_1
  6
Continuous
 62
     4
100
AcDbPoint
 10
1427.500018095908
 20
212.4999789369199
 30
0.0
1001
ASKOBJSC
1000
1/1
1001
ASKDWGSC
1040
5.0
  0
POINT
  5
9BB
330
1F
100
AcDbEntity
  8
FO0001_1
  6
Continuous
 62
     4
100
AcDbPoint
 10
1589.317604490789
 20
170.4549203593401
 30
0.0
1001
ASKOBJSC
1000
1/1
1001
ASKDWGSC
1040
5.0
  0
POINT
  5
9BC
330
1F
100
AcDbEntity
  8
FO0001_1
  6
Continuous
 62
     4
100
AcDbPoint
 10
1613.182426522875
 20
154.5450390046207
 30
0.0
1001
ASKOBJSC
1000
1/1
1001
ASKDWGSC
1040
5.0
  0
POINT
  5
9BD
330
1F
100
AcDbEntity
  8
FO0001_1
  6
Continuous
 62
     4
100
AcDbPoint
 10
1471.249979297033
 20
162.4999796819779
 30
0.0
1001
ASKOBJSC
1000
1/1
1001
ASKDWGSC
1040
5.0
  0
POINT
  5
9BE
330
1F
100
AcDbEntity
  8
FO0001_1
  6
Continuous
 62
     4
100
AcDbPoint
 10
1622.499977043233
 20
212.4999789369199
 30
0.0
1001
ASKOBJSC
1000
1/1
1001
ASKDWGSC
1040
5.0
  0
POINT
  5
9BF
330
1F
100
AcDbEntity
  8
FO0001_1
  6
Continuous
 62
     4
100
AcDbPoint
 10
1712.499975702128
 20
162.4999796819779
 30
0.0
1001
ASKOBJSC
1000
1/1
1001
ASKDWGSC
1040
5.0
  0
POINT
  5
9C0
330
1F
100
AcDbEntity
  8
FO0001_1
  6
Continuous
 62
     4
100
AcDbPoint
 10
1712.499975702128
 20
212.4999789369199
 30
0.0
1001
ASKOBJSC
1000
1/1
1001
ASKDWGSC
1040
5.0
  0
POINT
  5
9C1
330
1F
100
AcDbEntity
  8
FO0001_1
  6
Continuous
 62
     4
100
AcDbPoint
 10
1479.999979166648
 20
377.4999478679742
 30
0.0
1001
ASKOBJSC
1000
1/1
1001
ASKDWGSC
1040
5.0
  0
POINT
  5
9C2
330
1F
100
AcDbEntity
  8
FO0001_1
  6
Continuous
 62
     4
100
AcDbPoint
 10
1792.499974510036
 20
377.4999478679742
 30
0.0
1001
ASKOBJSC
1000
1/1
1001
ASKDWGSC
1040
5.0
  0
POINT
  5
9C3
330
1F
100
AcDbEntity
  8
FO0001_1
  6
Continuous
 62
     4
100
AcDbPoint
 10
1697.499975925646
 20
377.4999478679742
 30
0.0
1001
ASKOBJSC
1000
1/1
1001
ASKDWGSC
1040
5.0
  0
POINT
  5
9C4
330
1F
100
AcDbEntity
  8
FO0001_1
  6
Continuous
 62
     4
100
AcDbPoint
 10
1425.000018133161
 20
377.4999478679742
 30
0.0
1001
ASKOBJSC
1000
1/1
1001
ASKDWGSC
1040
5.0
  0
POINT
  5
9C5
330
1F
100
AcDbEntity
  8
FO0001_1
  6
Continuous
 62
     4
100
AcDbPoint
 10
1642.49997674521
 20
377.4999478679742
 30
0.0
1001
ASKOBJSC
1000
1/1
1001
ASKDWGSC
1040
5.0
  0
POINT
  5
9C6
330
1F
100
AcDbEntity
  8
FO0001_1
  6
Continuous
 62
     4
100
AcDbPoint
 10
1844.999973727725
 20
377.4999478679742
 30
0.0
1001
ASKOBJSC
1000
1/1
1001
ASKDWGSC
1040
5.0
  0
POINT
  5
9C7
330
1F
100
AcDbEntity
  8
FO0001_1
  6
Continuous
 62
     4
100
AcDbPoint
 10
1554.999978049061
 20
293.749958652716
 30
0.0
1001
ASKOBJSC
1000
1/1
1001
ASKDWGSC
1040
5.0
  0
POINT
  5
9C8
330
1F
100
AcDbEntity
  8
FO0001_1
  6
Continuous
 62
     4
100
AcDbPoint
 10
1977.500200635117
 20
102.2926708562368
 30
0.0
1001
ASKOBJSC
1000
1/1
1001
ASKDWGSC
1040
5.0
  0
POINT
  5
9C9
330
1F
100
AcDbEntity
  8
FO0001_1
  6
Continuous
 62
     4
100
AcDbPoint
 10
1704.999975813887
 20
106.2499614466837
 30
0.0
1001
ASKOBJSC
1000
1/1
1001
ASKDWGSC
1040
5.0
  0
POINT
  5
9CA
330
1F
100
AcDbEntity
  8
FO0001_1
  6
Continuous
 62
     4
100
AcDbPoint
 10
1055.000004573132
 20
747.4999709647936
 30
0.0
1001
ASKOBJSC
1000
1/1
1001
ASKDWGSC
1040
5.0
  0
POINT
  5
9CB
330
1F
100
AcDbEntity
  8
FO0001_1
  6
Continuous
 62
     4
100
AcDbPoint
 10
2110.000046072816
 20
-0.0000369700678675
 30
0.0
1001
ASKOBJSC
1000
1/1
1001
ASKDWGSC
1040
5.0
  0
POINT
  5
9CC
330
1F
100
AcDbEntity
  8
FO0001_1
  6
Continuous
 62
     4
100
AcDbPoint
 10
2004.999971343539
 20
324.9999486503102
 30
0.0
1001
ASKOBJSC
1000
1/1
1001
ASKDWGSC
1040
5.0
  0
POINT
  5
9CD
330
1F
100
AcDbEntity
  8
FO0001_1
  6
Continuous
 62
     4
100
AcDbPoint
 10
104.9999996557948
 20
1387.4999805015
 30
0.0
1001
ASKOBJSC
1000
1/1
1001
ASKDWGSC
1040
5.0
  0
POINT
  5
9CE
330
1F
100
AcDbEntity
  8
FO0001_1
  6
Continuous
 62
     4
100
AcDbPoint
 10
104.9999996557948
 20
1387.4999805015
 30
0.0
1001
ASKOBJSC
1000
1/1
1001
ASKDWGSC
1040
5.0
  0
POINT
  5
A1C
330
1F
100
AcDbEntity
  8
TP1791_5
  6
Continuous
 62
     4
100
AcDbPoint
 10
889.0519575805237
 20
1001.104854095977
 30
0.0
 50
179.9999999764969
  0
POINT
  5
A1D
330
1F
100
AcDbEntity
  8
TP1791_5
  6
Continuous
 62
     4
100
AcDbPoint
 10
629.0519709915737
 20
1001.104854202631
 30
0.0
 50
179.9999999764969
  0
POINT
  5
A1E
330
1F
100
AcDbEntity
  8
TP1791_5
  6
Continuous
 62
     4
100
AcDbPoint
 10
727.3019710613803
 20
1171.278846005968
 30
0.0
 50
179.9999999764969
  0
POINT
  5
B98
330
1F
100
AcDbEntity
  8
PA0001_1
  6
Continuous
 62
     4
100
AcDbPoint
 10
1554.953986193321
 20
1035.949946976068
 30
0.0
1001
ASKOBJSC
1000
1/1
1001
ASKDWGSC
1040
5.0
  0
POINT
  5
B99
330
1F
100
AcDbEntity
  8
PA0001_1
  6
Continuous
 62
     4
100
AcDbPoint
 10
1554.953986193321
 20
1035.949946976068
 30
0.0
1001
ASKOBJSC
1000
1/1
1001
ASKDWGSC
1040
5.0
  0
POINT
  5
B9A
330
1F
100
AcDbEntity
  8
PA0001_1
  6
Continuous
 62
     4
100
AcDbPoint
 10
1554.953986193321
 20
1035.949946976068
 30
0.0
1001
ASKOBJSC
1000
1/1
1001
ASKDWGSC
1040
5.0
  0
POINT
  5
B9B
330
1F
100
AcDbEntity
  8
PA0001_1
  6
Continuous
 62
     4
100
AcDbPoint
 10
1522.453986677609
 20
915.9499487642078
 30
0.0
1001
ASKOBJSC
1000
1/1
1001
ASKDWGSC
1040
5.0
  0
POINT
  5
B9C
330
1F
100
AcDbEntity
  8
PA0001_1
  6
Continuous
 62
     4
100
AcDbPoint
 10
1522.453986677609
 20
915.9499487642078
 30
0.0
1001
ASKOBJSC
1000
1/1
1001
ASKDWGSC
1040
5.0
  0
POINT
  5
B9D
330
1F
100
AcDbEntity
  8
PA0001_1
  6
Continuous
 62
     4
100
AcDbPoint
 10
1672.453984442435
 20
1035.949946976068
 30
0.0
1001
ASKOBJSC
1000
1/1
1001
ASKDWGSC
1040
5.0
  0
POINT
  5
B9E
330
1F
100
AcDbEntity
  8
PA0001_1
  6
Continuous
 62
     4
100
AcDbPoint
 10
1672.453984442435
 20
1085.94994623101
 30
0.0
1001
ASKOBJSC
1000
1/1
1001
ASKDWGSC
1040
5.0
  0
POINT
  5
B9F
330
1F
100
AcDbEntity
  8
PA0001_1
  6
Continuous
 62
     4
100
AcDbPoint
 10
1554.953986193321
 20
1135.949945485952
 30
0.0
1001
ASKOBJSC
1000
1/1
1001
ASKDWGSC
1040
5.0
  0
POINT
  5
BA0
330
1F
100
AcDbEntity
  8
PA0001_1
  6
Continuous
 62
     4
100
AcDbPoint
 10
1554.953986193321
 20
1135.949945485952
 30
0.0
1001
ASKOBJSC
1000
1/1
1001
ASKDWGSC
1040
5.0
  0
POINT
  5
BA1
330
1F
100
AcDbEntity
  8
PA0001_1
  6
Continuous
 62
     4
100
AcDbPoint
 10
1672.453984442435
 20
1035.949946976068
 30
0.0
1001
ASKOBJSC
1000
1/1
1001
ASKDWGSC
1040
5.0
  0
POINT
  5
D9E
330
1F
100
AcDbEntity
  8
ZZ0001_1
  6
Continuous
 62
     4
100
AcDbPoint
 10
1182.087317976437
 20
504.1402221683291
 30
0.0
1001
ASKOBJSC
1000
1/1
1001
ASKDWGSC
1040
5.0
  0
POINT
  5
D9F
330
1F
100
AcDbEntity
  8
ZZ0001_1
  6
Continuous
 62
     4
100
AcDbPoint
 10
1182.087317976437
 20
504.1402221683291
 30
0.0
1001
ASKOBJSC
1000
1/1
1001
ASKDWGSC
1040
5.0
  0
LINE
  5
9D44
330
1F
100
AcDbEntity
  8
0
370
    -3
100
AcDbLine
 10
886.7136414255218
 20
4847.74146465772
 30
0.0
 11
886.7136414255218
 21
692.7420510115189
 31
0.0
  0
LINE
  5
9D45
330
1F
100
AcDbEntity
  8
0
370
    -3
100
AcDbLine
 10
736.7136625935382
 20
4997.741443489786
 30
0.0
 11
736.7136625935382
 21
4697.741485825736
 31
0.0
  0
LINE
  5
9D46
330
1F
100
AcDbEntity
  8
0
370
    -3
100
AcDbLine
 10
736.7136625935382
 20
842.7420298435299
 30
0.0
 11
736.7136625935382
 21
542.7420721795352
 31
0.0
  0
LINE
  5
9D47
330
1F
100
AcDbEntity
  8
0
370
    -3
100
AcDbLine
 10
886.7136414255218
 20
692.7420510115189
 30
0.0
 11
6886.712794705309
 21
692.7420510115189
 31
0.0
  0
LINE
  5
9D48
330
1F
100
AcDbEntity
  8
0
370
    -3
100
AcDbLine
 10
736.7136625935382
 20
542.7420721795352
 30
0.0
 11
1036.713620257506
 21
542.7420721795897
 31
0.0
  0
LINE
  5
9D49
330
1F
100
AcDbEntity
  8
0
370
    -3
100
AcDbLine
 10
6736.712815873325
 20
542.7420721795352
 30
0.0
 11
7036.712773537293
 21
542.7420721795352
 31
0.0
  0
LINE
  5
9D4A
330
1F
100
AcDbEntity
  8
0
370
    -3
100
AcDbLine
 10
6886.712794705309
 20
692.7420510115189
 30
0.0
 11
6886.712794705309
 21
4847.74146465772
 31
0.0
  0
LINE
  5
9D4B
330
1F
100
AcDbEntity
  8
0
370
    -3
100
AcDbLine
 10
7036.712773537293
 20
542.7420721795352
 30
0.0
 11
7036.712773537293
 21
842.7420298435299
 31
0.0
  0
LINE
  5
9D4C
330
1F
100
AcDbEntity
  8
0
370
    -3
100
AcDbLine
 10
7036.712773537401
 20
4697.741485825736
 30
0.0
 11
7036.712773537293
 21
4997.741443489786
 31
0.0
  0
LINE
  5
9D4D
330
1F
100
AcDbEntity
  8
0
370
    -3
100
AcDbLine
 10
6886.712794705309
 20
4847.74146465772
 30
0.0
 11
886.7136414255218
 21
4847.74146465772
 31
0.0
  0
LINE
  5
9D4E
330
1F
100
AcDbEntity
  8
0
370
    -3
100
AcDbLine
 10
7036.712773537293
 20
4997.741443489786
 30
0.0
 11
6736.712815873325
 21
4997.741443489786
 31
0.0
  0
LINE
  5
9D4F
330
1F
100
AcDbEntity
  8
0
370
    -3
100
AcDbLine
 10
1036.713620257506
 20
4997.741443489839
 30
0.0
 11
736.7136625935382
 21
4997.741443489786
 31
0.0
  0
LINE
  5
9D50
330
1F
100
AcDbEntity
  8
2
  6
Continuous
 62
     7
100
AcDbLine
 10
1110.291676775887
 20
4847.74146465772
 30
0.0
 11
1110.291676775887
 21
4740.092780970517
 31
0.0
  0
MTEXT
  5
9D51
330
1F
100
AcDbEntity
  8
0
370
    -3
100
AcDbMText
 10
998.5026591007191
 20
4793.917122814105
 30
0.0
 40
32.53119561977086
 41
223.5780353504251
 71
     5
 72
     5
  1
{\fＭＳ ゴシック|b0|i0|c128|p49;記　号}
 73
     1
 44
1.0
1001
ACAD
1000
MTEXTBEGIN
1070
    73
1070
     1
1070
    44
1040
1.0
1070
    74
1070
     0
1000
MTEXTEND
  0
MTEXT
  5
9D52
330
1F
100
AcDbEntity
  8
0
370
    -3
100
AcDbMText
 10
2257.16419144391
 20
4793.917122814105
 30
0.0
 40
32.53119561977086
 41
223.5780353504251
 71
     5
 72
     5
  1
{\fＭＳ ゴシック|b0|i0|c128|p49;記　入}
 73
     1
 44
1.0
1001
ACAD
1000
MTEXTBEGIN
1070
    73
1070
     1
1070
    44
1040
1.0
1070
    74
1070
     0
1000
MTEXTEND
  0
LINE
  5
9D53
330
1F
100
AcDbEntity
  8
2
  6
Continuous
 62
     7
100
AcDbLine
 10
886.7136414255218
 20
4740.092780970517
 30
0.0
 11
2575.969908517636
 21
4740.092780970517
 31
0.0
  0
MTEXT
  5
9D54
330
1F
100
AcDbEntity
  8
0
370
    -3
100
AcDbMText
 10
1491.202403669275
 20
4793.917122814105
 30
0.0
 40
32.53119561977086
 41
735.4584685945134
 71
     5
 72
     5
  1
{\fＭＳ ゴシック|b0|i0|c128|p49;来　　　　　　　　　　　歴}
 73
     1
 44
1.0
1001
ACAD
1000
MTEXTBEGIN
1070
    73
1070
     1
1070
    44
1040
1.0
1070
    74
1070
     0
1000
MTEXTEND
  0
LINE
  5
9D55
330
1F
100
AcDbEntity
  8
2
  6
Continuous
 62
     7
100
AcDbLine
 10
2145.375173768552
 20
4847.74146465772
 30
0.0
 11
2145.375173768552
 21
4740.092780970517
 31
0.0
  0
LINE
  5
9D56
330
1F
100
AcDbEntity
  8
2
  6
Continuous
 62
     7
100
AcDbLine
 10
1872.113130562593
 20
4847.74146465772
 30
0.0
 11
1872.113130562593
 21
4740.092780970517
 31
0.0
  0
MTEXT
  5
9D57
330
1F
100
AcDbEntity
  8
0
370
    -3
100
AcDbMText
 10
2008.744152165513
 20
4793.917122814105
 30
0.0
 40
32.53119561977086
 41
223.5780353504251
 71
     5
 72
     5
  1
{\fＭＳ ゴシック|b0|i0|c128|p49;年　月　日}
 73
     1
 44
1.0
1001
ACAD
1000
MTEXTBEGIN
1070
    73
1070
     1
1070
    44
1040
1.0
1070
    74
1070
     0
1000
MTEXTEND
  0
LINE
  5
9D58
330
1F
100
AcDbEntity
  8
2
  6
Continuous
 62
     7
100
AcDbLine
 10
2575.969908517636
 20
4847.74146465772
 30
0.0
 11
2575.969908517636
 21
4740.092780970517
 31
0.0
  0
MTEXT
  5
9D59
330
1F
100
AcDbEntity
  8
0
370
    -3
100
AcDbMText
 10
2472.461558818439
 20
4793.917122814105
 30
0.0
 40
32.53119561977086
 41
223.5780353504251
 71
     5
 72
     5
  1
{\fＭＳ ゴシック|b0|i0|c128|p49;承　認}
 73
     1
 44
1.0
1001
ACAD
1000
MTEXTBEGIN
1070
    73
1070
     1
1070
    44
1040
1.0
1070
    74
1070
     0
1000
MTEXTEND
  0
LINE
  5
9D5A
330
1F
100
AcDbEntity
  8
2
  6
Continuous
 62
     7
100
AcDbLine
 10
2360.672541143122
 20
4847.74146465772
 30
0.0
 11
2360.672541143122
 21
4740.092780970517
 31
0.0
  0
LINE
  5
9D5B
330
1F
100
AcDbEntity
  8
2
  6
Continuous
 62
     7
100
AcDbLine
 10
4866.229808575572
 20
899.7587504100739
 30
0.0
 11
6886.712794705309
 21
899.7587504100739
 31
0.0
  0
LINE
  5
9D5C
330
1F
100
AcDbEntity
  8
2
  6
Continuous
 62
     7
100
AcDbLine
 10
4866.229808575572
 20
1313.792149207156
 30
0.0
 11
6886.712794705309
 21
1313.792149207156
 31
0.0
  0
MTEXT
  5
9D5D
330
1F
100
AcDbEntity
  8
0
370
    -3
100
AcDbMText
 10
4973.878492262767
 20
1272.388809327356
 30
0.0
 40
32.53119561977086
 41
223.5780353504251
 71
     5
 72
     5
  1
{\fＭＳ ゴシック|b0|i0|c128|p49;設　計}
 73
     1
 44
1.0
1001
ACAD
1000
MTEXTBEGIN
1070
    73
1070
     1
1070
    44
1040
1.0
1070
    74
1070
     0
1000
MTEXTEND
  0
MTEXT
  5
9D5E
330
1F
100
AcDbEntity
  8
0
 62
     0
370
    -3
100
AcDbMText
 10
5296.824543324561
 20
796.2504007107636
 30
0.0
 40
57.96467583159172
 41
861.1894694979339
 71
     5
 72
     5
  1
{\fMS Gothic|b0|i0|c128|p49;北海道スイコー株式会社}
 73
     1
 44
1.0
1001
ACAD
1000
MTEXTBEGIN
1070
    73
1070
     1
1070
    44
1040
1.0
1070
    74
1070
     0
1000
MTEXTEND
  0
LINE
  5
9D5F
330
1F
100
AcDbEntity
  8
2
  6
Continuous
 62
     7
100
AcDbLine
 10
4866.229808575572
 20
1065.372109928912
 30
0.0
 11
5727.419278073412
 21
1065.372109928912
 31
0.0
  0
LINE
  5
9D60
330
1F
100
AcDbEntity
  8
2
  6
Continuous
 62
     7
100
AcDbLine
 10
4866.229808575572
 20
1230.985469447724
 30
0.0
 11
5727.419278073412
 21
1230.985469447724
 31
0.0
  0
MTEXT
  5
9D61
330
1F
100
AcDbEntity
  8
0
370
    -3
100
AcDbMText
 10
4900.441877347097
 20
921.5752984686114
 30
0.0
 40
32.53119561977086
 41
44.7354215255989
 71
     5
 72
     5
  1
{\fＭＳ ゴシック|b0|i0|c128|p49;日}
 73
     1
 44
1.0
1001
ACAD
1000
MTEXTBEGIN
1070
    73
1070
     1
1070
    44
1040
1.0
1070
    74
1070
     0
1000
MTEXTEND
  0
LINE
  5
9D62
330
1F
100
AcDbEntity
  8
2
  6
Continuous
 62
     7
100
AcDbLine
 10
4940.75582035899
 20
1065.372109928912
 30
0.0
 11
4940.75582035899
 21
899.7587504100739
 31
0.0
  0
LINE
  5
9D63
330
1F
100
AcDbEntity
  8
2
  6
Continuous
 62
     7
100
AcDbLine
 10
4866.229808575572
 20
1313.792149207156
 30
0.0
 11
4866.229808575572
 21
692.7420510115189
 31
0.0
  0
MTEXT
  5
9D64
330
1F
100
AcDbEntity
  8
0
370
    -3
100
AcDbMText
 10
4898.509236167971
 20
1041.052996345825
 30
0.0
 40
32.53119561977086
 41
44.73553352528667
 71
     5
 72
     5
  1
{\fＭＳ ゴシック|b0|i0|c128|p49;年}
 73
     1
 44
1.0
1001
ACAD
1000
MTEXTBEGIN
1070
    73
1070
     1
1070
    44
1040
1.0
1070
    74
1070
     0
1000
MTEXTEND
  0
MTEXT
  5
9D65
330
1F
100
AcDbEntity
  8
0
370
    -3
100
AcDbMText
 10
4893.59034278852
 20
952.51309994646
 30
0.0
 40
32.53119561977086
 41
30.27796671588871
 71
     5
 72
     5
  1
{\fＭＳ ゴシック|b0|i0|c128|p49;・}
 73
     1
 44
1.0
1001
ACAD
1000
MTEXTBEGIN
1070
    73
1070
     1
1070
    44
1040
1.0
1070
    74
1070
     0
1000
MTEXTEND
  0
MTEXT
  5
9D66
330
1F
100
AcDbEntity
  8
0
370
    -3
100
AcDbMText
 10
4900.441877347097
 20
978.0986786146822
 30
0.0
 40
32.53119561977086
 41
44.7354215255989
 71
     5
 72
     5
  1
{\fＭＳ ゴシック|b0|i0|c128|p49;月}
 73
     1
 44
1.0
1001
ACAD
1000
MTEXTBEGIN
1070
    73
1070
     1
1070
    44
1040
1.0
1070
    74
1070
     0
1000
MTEXTEND
  0
MTEXT
  5
9D67
330
1F
100
AcDbEntity
  8
0
370
    -3
100
AcDbMText
 10
4893.59034278852
 20
1010.908087042422
 30
0.0
 40
32.53119561977086
 41
30.27796671588871
 71
     5
 72
     5
  1
{\fＭＳ ゴシック|b0|i0|c128|p49;・}
 73
     1
 44
1.0
1001
ACAD
1000
MTEXTBEGIN
1070
    73
1070
     1
1070
    44
1040
1.0
1070
    74
1070
     0
1000
MTEXTEND
  0
LINE
  5
9D68
330
1F
100
AcDbEntity
  8
2
  6
Continuous
 62
     7
100
AcDbLine
 10
5818.50662580875
 20
1313.792149207156
 30
0.0
 11
5818.50662580875
 21
692.7420510115189
 31
0.0
  0
LINE
  5
9D69
330
1F
100
AcDbEntity
  8
2
  6
Continuous
 62
     7
100
AcDbLine
 10
5727.419278073412
 20
1313.792149207156
 30
0.0
 11
5727.419278073412
 21
692.7420510115189
 31
0.0
  0
LINE
  5
9D6A
330
1F
100
AcDbEntity
  8
2
  6
Continuous
 62
     7
100
AcDbLine
 10
5371.350555107966
 20
1065.372109928912
 30
0.0
 11
5371.350555107966
 21
899.7587504100739
 31
0.0
  0
MTEXT
  5
9D6B
330
1F
100
AcDbEntity
  8
0
370
    -3
100
AcDbMText
 10
5772.962951941154
 20
848.0045755604223
 30
0.0
 40
44.36072129968752
 41
66.70488064084967
 71
     5
 72
     5
  1
{\fＭＳ ゴシック|b0|i0|c128|p49;図}
 73
     1
 44
1.0
1001
ACAD
1000
MTEXTBEGIN
1070
    73
1070
     1
1070
    44
1040
1.0
1070
    74
1070
     0
1000
MTEXTEND
  0
MTEXT
  5
9D6C
330
1F
100
AcDbEntity
  8
0
370
    -3
100
AcDbMText
 10
5772.962951941154
 20
744.496225861134
 30
0.0
 40
44.36072129968752
 41
66.70492088019816
 71
     5
 72
     5
  1
{\fMS Gothic|b0|i0|c128|p49;番}
 73
     1
 44
1.0
1001
ACAD
1000
MTEXTBEGIN
1070
    73
1070
     1
1070
    44
1040
1.0
1070
    74
1070
     0
1000
MTEXTEND
  0
LINE
  5
9D6D
330
1F
100
AcDbEntity
  8
2
  6
Continuous
 62
     7
100
AcDbLine
 10
5496.687339080144
 20
929.867483751541
 30
0.0
 11
5602.083036645836
 21
1035.263172433096
 31
0.0
  0
LINE
  5
9D6E
330
1F
100
AcDbEntity
  8
2
  6
Continuous
 62
     7
100
AcDbLine
 10
5512.121910698898
 20
1313.792149207156
 30
0.0
 11
5512.121910698898
 21
1065.372109928912
 31
0.0
  0
MTEXT
  5
9D6F
330
1F
100
AcDbEntity
  8
0
370
    -3
100
AcDbMText
 10
5189.175859637238
 20
1272.388809327356
 30
0.0
 40
32.53119561977086
 41
223.5780353504251
 71
     5
 72
     5
  1
{\fＭＳ ゴシック|b0|i0|c128|p49;製　図}
 73
     1
 44
1.0
1001
ACAD
1000
MTEXTBEGIN
1070
    73
1070
     1
1070
    44
1040
1.0
1070
    74
1070
     0
1000
MTEXTEND
  0
MTEXT
  5
9D70
330
1F
100
AcDbEntity
  8
0
 62
     0
370
    -3
100
AcDbMText
 10
5189.175859637355
 20
1150.36868074155
 30
0.0
 40
41.40333987970836
 41
215.2973673744835
 71
     5
 72
     5
  1
{\fMS Gothic|b0|i0|c128|p49;大久保}
 73
     1
 44
1.0
1001
ACAD
1000
MTEXTBEGIN
1070
    73
1070
     1
1070
    44
1040
1.0
1070
    74
1070
     0
1000
MTEXTEND
  0
LINE
  5
9D71
330
1F
100
AcDbEntity
  8
2
  6
Continuous
 62
     7
100
AcDbLine
 10
5081.527175950032
 20
1313.792149207156
 30
0.0
 11
5081.527175950032
 21
1065.372109928912
 31
0.0
  0
MTEXT
  5
9D72
330
1F
100
AcDbEntity
  8
0
370
    -3
100
AcDbMText
 10
5334.087549216318
 20
941.1620902896684
 30
0.0
 40
32.53119561977086
 41
0.0
 71
     5
 72
     5
  1
{\fＭＳ ゴシック|b0|i0|c128|p49;度}
 73
     1
 44
1.0
1001
ACAD
1000
MTEXTBEGIN
1070
    73
1070
     1
1070
    44
1040
1.0
1070
    74
1070
     0
1000
MTEXTEND
  0
MTEXT
  5
9D73
330
1F
100
AcDbEntity
  8
0
370
    -3
100
AcDbMText
 10
5334.087549216318
 20
1023.968770049134
 30
0.0
 40
32.53119561977086
 41
0.0000000000002522
 71
     5
 72
     5
  1
{\fＭＳ ゴシック|b0|i0|c128|p49;尺}
 73
     1
 44
1.0
1001
ACAD
1000
MTEXTBEGIN
1070
    73
1070
     1
1070
    44
1040
1.0
1070
    74
1070
     0
1000
MTEXTEND
  0
MTEXT
  5
9D74
330
1F
100
AcDbEntity
  8
0
370
    -3
100
AcDbMText
 10
5404.47322701171
 20
1272.388809327356
 30
0.0
 40
32.53119561977086
 41
223.5780353504251
 71
     5
 72
     5
  1
{\fＭＳ ゴシック|b0|i0|c128|p49;検　図}
 73
     1
 44
1.0
1001
ACAD
1000
MTEXTBEGIN
1070
    73
1070
     1
1070
    44
1040
1.0
1070
    74
1070
     0
1000
MTEXTEND
  0
MTEXT
  5
9D75
330
1F
100
AcDbEntity
  8
0
370
    -3
100
AcDbMText
 10
5772.962951941154
 20
1210.283799507801
 30
0.0
 40
44.36072129968752
 41
78.34606136366217
 71
     5
 72
     5
  1
{\fＭＳ ゴシック|b0|i0|c128|p49;名}
 73
     1
 44
1.0
1001
ACAD
1000
MTEXTBEGIN
1070
    73
1070
     1
1070
    44
1040
1.0
1070
    74
1070
     0
1000
MTEXTEND
  0
MTEXT
  5
9D76
330
1F
100
AcDbEntity
  8
0
370
    -3
100
AcDbMText
 10
5619.770594386238
 20
1272.388809327356
 30
0.0
 40
32.53119561977086
 41
223.5780353504251
 71
     5
 72
     5
  1
{\fＭＳ ゴシック|b0|i0|c128|p49;承　認}
 73
     1
 44
1.0
1001
ACAD
1000
MTEXTBEGIN
1070
    73
1070
     1
1070
    44
1040
1.0
1070
    74
1070
     0
1000
MTEXTEND
  0
MTEXT
  5
9D77
330
1F
100
AcDbEntity
  8
0
370
    -3
100
AcDbMText
 10
5772.962951941154
 20
1003.26710010934
 30
0.0
 40
44.36072129968752
 41
78.34606136366217
 71
     5
 72
     5
  1
{\fＭＳ ゴシック|b0|i0|c128|p49;称}
 73
     1
 44
1.0
1001
ACAD
1000
MTEXTBEGIN
1070
    73
1070
     1
1070
    44
1040
1.0
1070
    74
1070
     0
1000
MTEXTEND
  0
LINE
  5
9D78
330
1F
100
AcDbEntity
  8
2
  6
Continuous
 62
     7
100
AcDbLine
 10
6737.660771138471
 20
749.6772028766281
 30
0.0
 11
6853.590122801525
 21
749.6772028766281
 31
0.0
  0
LINE
  5
9D79
330
1F
100
AcDbEntity
  8
2
  6
Continuous
 62
     7
100
AcDbLine
 10
6795.625635277284
 20
850.0749932186227
 30
0.0
 11
6853.590317071667
 21
749.6772330766908
 31
0.0
  0
LINE
  5
9D7A
330
1F
100
AcDbEntity
  8
2
  6
Continuous
 62
     7
100
AcDbLine
 10
6737.661908046284
 20
749.6762839492657
 30
0.0
 11
6795.626558252407
 21
850.0739893788704
 31
0.0
  0
LINE
  5
9D7B
330
1F
100
AcDbEntity
  8
2
  6
Continuous
 62
     7
100
AcDbLine
 10
6812.186782921781
 20
1520.808848605629
 30
0.0
 11
6886.712794705309
 21
1520.808848605629
 31
0.0
  0
MTEXT
  5
9D7C
330
1F
100
AcDbEntity
  8
0
370
    -3
100
AcDbMText
 10
5509.359946843265
 20
1021.078938292921
 30
0.0
 40
41.40329415716482
 41
36.34907773349782
 71
     5
 72
     5
  1
{\fMS Gothic|b0|i0|c128|p49;1}
 73
     1
 44
1.0
1001
ACAD
1000
MTEXTBEGIN
1070
    73
1070
     1
1070
    44
1040
1.0
1070
    74
1070
     0
1000
MTEXTEND
  0
LINE
  5
9D7D
330
1F
100
AcDbEntity
  8
0
370
    -3
100
AcDbLine
 10
886.7136414255218
 20
4847.74146465772
 30
0.0
 11
886.7136414255218
 21
692.7420510115189
 31
0.0
  0
LINE
  5
9D7E
330
1F
100
AcDbEntity
  8
0
370
    -3
100
AcDbLine
 10
736.7136625935382
 20
4997.741443489786
 30
0.0
 11
736.7136625935382
 21
4697.741485825736
 31
0.0
  0
LINE
  5
9D7F
330
1F
100
AcDbEntity
  8
0
370
    -3
100
AcDbLine
 10
736.7136625935382
 20
842.7420298435299
 30
0.0
 11
736.7136625935382
 21
542.7420721795352
 31
0.0
  0
LINE
  5
9D80
330
1F
100
AcDbEntity
  8
0
370
    -3
100
AcDbLine
 10
886.7136414255218
 20
692.7420510115189
 30
0.0
 11
6886.712794705309
 21
692.7420510115189
 31
0.0
  0
LINE
  5
9D81
330
1F
100
AcDbEntity
  8
0
370
    -3
100
AcDbLine
 10
736.7136625935382
 20
542.7420721795352
 30
0.0
 11
1036.713620257506
 21
542.7420721795897
 31
0.0
  0
LINE
  5
9D82
330
1F
100
AcDbEntity
  8
0
370
    -3
100
AcDbLine
 10
6736.712815873325
 20
542.7420721795352
 30
0.0
 11
7036.712773537293
 21
542.7420721795352
 31
0.0
  0
LINE
  5
9D83
330
1F
100
AcDbEntity
  8
0
370
    -3
100
AcDbLine
 10
6886.712794705309
 20
692.7420510115189
 30
0.0
 11
6886.712794705309
 21
4847.74146465772
 31
0.0
  0
LINE
  5
9D84
330
1F
100
AcDbEntity
  8
0
370
    -3
100
AcDbLine
 10
7036.712773537293
 20
542.7420721795352
 30
0.0
 11
7036.712773537293
 21
842.7420298435299
 31
0.0
  0
LINE
  5
9D85
330
1F
100
AcDbEntity
  8
0
370
    -3
100
AcDbLine
 10
7036.712773537401
 20
4697.741485825736
 30
0.0
 11
7036.712773537293
 21
4997.741443489786
 31
0.0
  0
LINE
  5
9D86
330
1F
100
AcDbEntity
  8
0
370
    -3
100
AcDbLine
 10
6886.712794705309
 20
4847.74146465772
 30
0.0
 11
886.7136414255218
 21
4847.74146465772
 31
0.0
  0
LINE
  5
9D87
330
1F
100
AcDbEntity
  8
0
370
    -3
100
AcDbLine
 10
7036.712773537293
 20
4997.741443489786
 30
0.0
 11
6736.712815873325
 21
4997.741443489786
 31
0.0
  0
LINE
  5
9D88
330
1F
100
AcDbEntity
  8
0
370
    -3
100
AcDbLine
 10
1036.713620257506
 20
4997.741443489839
 30
0.0
 11
736.7136625935382
 21
4997.741443489786
 31
0.0
  0
LINE
  5
9D89
330
1F
100
AcDbEntity
  8
2
  6
Continuous
 62
     7
100
AcDbLine
 10
1110.291676775887
 20
4847.74146465772
 30
0.0
 11
1110.291676775887
 21
4740.092780970517
 31
0.0
  0
MTEXT
  5
9D8A
330
1F
100
AcDbEntity
  8
0
370
    -3
100
AcDbMText
 10
998.5026591007191
 20
4793.917122814105
 30
0.0
 40
32.53119561977086
 41
223.5780353504251
 71
     5
 72
     5
  1
{\fＭＳ ゴシック|b0|i0|c128|p49;記　号}
 73
     1
 44
1.0
1001
ACAD
1000
MTEXTBEGIN
1070
    73
1070
     1
1070
    44
1040
1.0
1070
    74
1070
     0
1000
MTEXTEND
  0
MTEXT
  5
9D8B
330
1F
100
AcDbEntity
  8
0
370
    -3
100
AcDbMText
 10
2257.16419144391
 20
4793.917122814105
 30
0.0
 40
32.53119561977086
 41
223.5780353504251
 71
     5
 72
     5
  1
{\fＭＳ ゴシック|b0|i0|c128|p49;記　入}
 73
     1
 44
1.0
1001
ACAD
1000
MTEXTBEGIN
1070
    73
1070
     1
1070
    44
1040
1.0
1070
    74
1070
     0
1000
MTEXTEND
  0
LINE
  5
9D8C
330
1F
100
AcDbEntity
  8
2
  6
Continuous
 62
     7
100
AcDbLine
 10
886.7136414255218
 20
4740.092780970517
 30
0.0
 11
2575.969908517636
 21
4740.092780970517
 31
0.0
  0
MTEXT
  5
9D8D
330
1F
100
AcDbEntity
  8
0
370
    -3
100
AcDbMText
 10
1491.202403669275
 20
4793.917122814105
 30
0.0
 40
32.53119561977086
 41
735.4584685945134
 71
     5
 72
     5
  1
{\fＭＳ ゴシック|b0|i0|c128|p49;来　　　　　　　　　　　歴}
 73
     1
 44
1.0
1001
ACAD
1000
MTEXTBEGIN
1070
    73
1070
     1
1070
    44
1040
1.0
1070
    74
1070
     0
1000
MTEXTEND
  0
LINE
  5
9D8E
330
1F
100
AcDbEntity
  8
2
  6
Continuous
 62
     7
100
AcDbLine
 10
2145.375173768552
 20
4847.74146465772
 30
0.0
 11
2145.375173768552
 21
4740.092780970517
 31
0.0
  0
LINE
  5
9D8F
330
1F
100
AcDbEntity
  8
2
  6
Continuous
 62
     7
100
AcDbLine
 10
1872.113130562593
 20
4847.74146465772
 30
0.0
 11
1872.113130562593
 21
4740.092780970517
 31
0.0
  0
MTEXT
  5
9D90
330
1F
100
AcDbEntity
  8
0
370
    -3
100
AcDbMText
 10
2008.744152165513
 20
4793.917122814105
 30
0.0
 40
32.53119561977086
 41
223.5780353504251
 71
     5
 72
     5
  1
{\fＭＳ ゴシック|b0|i0|c128|p49;年　月　日}
 73
     1
 44
1.0
1001
ACAD
1000
MTEXTBEGIN
1070
    73
1070
     1
1070
    44
1040
1.0
1070
    74
1070
     0
1000
MTEXTEND
  0
LINE
  5
9D91
330
1F
100
AcDbEntity
  8
2
  6
Continuous
 62
     7
100
AcDbLine
 10
2575.969908517636
 20
4847.74146465772
 30
0.0
 11
2575.969908517636
 21
4740.092780970517
 31
0.0
  0
MTEXT
  5
9D92
330
1F
100
AcDbEntity
  8
0
370
    -3
100
AcDbMText
 10
2472.461558818439
 20
4793.917122814105
 30
0.0
 40
32.53119561977086
 41
223.5780353504251
 71
     5
 72
     5
  1
{\fＭＳ ゴシック|b0|i0|c128|p49;承　認}
 73
     1
 44
1.0
1001
ACAD
1000
MTEXTBEGIN
1070
    73
1070
     1
1070
    44
1040
1.0
1070
    74
1070
     0
1000
MTEXTEND
  0
LINE
  5
9D93
330
1F
100
AcDbEntity
  8
2
  6
Continuous
 62
     7
100
AcDbLine
 10
2360.672541143122
 20
4847.74146465772
 30
0.0
 11
2360.672541143122
 21
4740.092780970517
 31
0.0
  0
LINE
  5
9D94
330
1F
100
AcDbEntity
  8
2
  6
Continuous
 62
     7
100
AcDbLine
 10
4866.229808575572
 20
899.7587504100739
 30
0.0
 11
6886.712794705309
 21
899.7587504100739
 31
0.0
  0
LINE
  5
9D95
330
1F
100
AcDbEntity
  8
2
  6
Continuous
 62
     7
100
AcDbLine
 10
4866.229808575572
 20
1313.792149207156
 30
0.0
 11
6886.712794705309
 21
1313.792149207156
 31
0.0
  0
MTEXT
  5
9D96
330
1F
100
AcDbEntity
  8
0
370
    -3
100
AcDbMText
 10
4973.878492262767
 20
1272.388809327356
 30
0.0
 40
32.53119561977086
 41
223.5780353504251
 71
     5
 72
     5
  1
{\fＭＳ ゴシック|b0|i0|c128|p49;設　計}
 73
     1
 44
1.0
1001
ACAD
1000
MTEXTBEGIN
1070
    73
1070
     1
1070
    44
1040
1.0
1070
    74
1070
     0
1000
MTEXTEND
  0
MTEXT
  5
9D97
330
1F
100
AcDbEntity
  8
0
 62
     0
370
    -3
100
AcDbMText
 10
5296.824543324561
 20
796.2504007107636
 30
0.0
 40
57.96467583159172
 41
861.1894694979339
 71
     5
 72
     5
  1
{\fMS Gothic|b0|i0|c128|p49;北海道スイコー株式会社}
 73
     1
 44
1.0
1001
ACAD
1000
MTEXTBEGIN
1070
    73
1070
     1
1070
    44
1040
1.0
1070
    74
1070
     0
1000
MTEXTEND
  0
LINE
  5
9D98
330
1F
100
AcDbEntity
  8
2
  6
Continuous
 62
     7
100
AcDbLine
 10
4866.229808575572
 20
1065.372109928912
 30
0.0
 11
5727.419278073412
 21
1065.372109928912
 31
0.0
  0
LINE
  5
9D99
330
1F
100
AcDbEntity
  8
2
  6
Continuous
 62
     7
100
AcDbLine
 10
4866.229808575572
 20
1230.985469447724
 30
0.0
 11
5727.419278073412
 21
1230.985469447724
 31
0.0
  0
MTEXT
  5
9D9A
330
1F
100
AcDbEntity
  8
0
370
    -3
100
AcDbMText
 10
4900.441877347097
 20
921.5752984686114
 30
0.0
 40
32.53119561977086
 41
44.7354215255989
 71
     5
 72
     5
  1
{\fＭＳ ゴシック|b0|i0|c128|p49;日}
 73
     1
 44
1.0
1001
ACAD
1000
MTEXTBEGIN
1070
    73
1070
     1
1070
    44
1040
1.0
1070
    74
1070
     0
1000
MTEXTEND
  0
LINE
  5
9D9B
330
1F
100
AcDbEntity
  8
2
  6
Continuous
 62
     7
100
AcDbLine
 10
4940.75582035899
 20
1065.372109928912
 30
0.0
 11
4940.75582035899
 21
899.7587504100739
 31
0.0
  0
LINE
  5
9D9C
330
1F
100
AcDbEntity
  8
2
  6
Continuous
 62
     7
100
AcDbLine
 10
4866.229808575572
 20
1313.792149207156
 30
0.0
 11
4866.229808575572
 21
692.7420510115189
 31
0.0
  0
MTEXT
  5
9D9D
330
1F
100
AcDbEntity
  8
0
370
    -3
100
AcDbMText
 10
4898.509236167971
 20
1041.052996345825
 30
0.0
 40
32.53119561977086
 41
44.73553352528667
 71
     5
 72
     5
  1
{\fＭＳ ゴシック|b0|i0|c128|p49;年}
 73
     1
 44
1.0
1001
ACAD
1000
MTEXTBEGIN
1070
    73
1070
     1
1070
    44
1040
1.0
1070
    74
1070
     0
1000
MTEXTEND
  0
MTEXT
  5
9D9E
330
1F
100
AcDbEntity
  8
0
370
    -3
100
AcDbMText
 10
4893.59034278852
 20
952.51309994646
 30
0.0
 40
32.53119561977086
 41
30.27796671588871
 71
     5
 72
     5
  1
{\fＭＳ ゴシック|b0|i0|c128|p49;・}
 73
     1
 44
1.0
1001
ACAD
1000
MTEXTBEGIN
1070
    73
1070
     1
1070
    44
1040
1.0
1070
    74
1070
     0
1000
MTEXTEND
  0
MTEXT
  5
9D9F
330
1F
100
AcDbEntity
  8
0
370
    -3
100
AcDbMText
 10
4900.441877347097
 20
978.0986786146822
 30
0.0
 40
32.53119561977086
 41
44.7354215255989
 71
     5
 72
     5
  1
{\fＭＳ ゴシック|b0|i0|c128|p49;月}
 73
     1
 44
1.0
1001
ACAD
1000
MTEXTBEGIN
1070
    73
1070
     1
1070
    44
1040
1.0
1070
    74
1070
     0
1000
MTEXTEND
  0
MTEXT
  5
9DA0
330
1F
100
AcDbEntity
  8
0
370
    -3
100
AcDbMText
 10
4893.59034278852
 20
1010.908087042422
 30
0.0
 40
32.53119561977086
 41
30.27796671588871
 71
     5
 72
     5
  1
{\fＭＳ ゴシック|b0|i0|c128|p49;・}
 73
     1
 44
1.0
1001
ACAD
1000
MTEXTBEGIN
1070
    73
1070
     1
1070
    44
1040
1.0
1070
    74
1070
     0
1000
MTEXTEND
  0
LINE
  5
9DA1
330
1F
100
AcDbEntity
  8
2
  6
Continuous
 62
     7
100
AcDbLine
 10
5818.50662580875
 20
1313.792149207156
 30
0.0
 11
5818.50662580875
 21
692.7420510115189
 31
0.0
  0
LINE
  5
9DA2
330
1F
100
AcDbEntity
  8
2
  6
Continuous
 62
     7
100
AcDbLine
 10
5727.419278073412
 20
1313.792149207156
 30
0.0
 11
5727.419278073412
 21
692.7420510115189
 31
0.0
  0
LINE
  5
9DA3
330
1F
100
AcDbEntity
  8
2
  6
Continuous
 62
     7
100
AcDbLine
 10
5371.350555107966
 20
1065.372109928912
 30
0.0
 11
5371.350555107966
 21
899.7587504100739
 31
0.0
  0
LINE
  5
9DA4
330
1F
100
AcDbEntity
  8
2
  6
Continuous
 62
     7
100
AcDbLine
 10
5296.824543324437
 20
1313.792149207156
 30
0.0
 11
5296.824543324437
 21
899.7587504100739
 31
0.0
  0
MTEXT
  5
9DA5
330
1F
100
AcDbEntity
  8
0
370
    -3
100
AcDbMText
 10
5772.962951941154
 20
848.0045755604223
 30
0.0
 40
44.36072129968752
 41
66.70488064084967
 71
     5
 72
     5
  1
{\fＭＳ ゴシック|b0|i0|c128|p49;図}
 73
     1
 44
1.0
1001
ACAD
1000
MTEXTBEGIN
1070
    73
1070
     1
1070
    44
1040
1.0
1070
    74
1070
     0
1000
MTEXTEND
  0
MTEXT
  5
9DA6
330
1F
100
AcDbEntity
  8
0
370
    -3
100
AcDbMText
 10
5772.962951941154
 20
744.496225861134
 30
0.0
 40
44.36072129968752
 41
66.70492088019816
 71
     5
 72
     5
  1
{\fMS Gothic|b0|i0|c128|p49;番}
 73
     1
 44
1.0
1001
ACAD
1000
MTEXTBEGIN
1070
    73
1070
     1
1070
    44
1040
1.0
1070
    74
1070
     0
1000
MTEXTEND
  0
LINE
  5
9DA7
330
1F
100
AcDbEntity
  8
2
  6
Continuous
 62
     7
100
AcDbLine
 10
5496.687339080144
 20
929.867483751541
 30
0.0
 11
5602.083036645836
 21
1035.263172433096
 31
0.0
  0
LINE
  5
9DA8
330
1F
100
AcDbEntity
  8
2
  6
Continuous
 62
     7
100
AcDbLine
 10
5512.121910698898
 20
1313.792149207156
 30
0.0
 11
5512.121910698898
 21
1065.372109928912
 31
0.0
  0
MTEXT
  5
9DA9
330
1F
100
AcDbEntity
  8
0
370
    -3
100
AcDbMText
 10
5189.175859637238
 20
1272.388809327356
 30
0.0
 40
32.53119561977086
 41
223.5780353504251
 71
     5
 72
     5
  1
{\fＭＳ ゴシック|b0|i0|c128|p49;製　図}
 73
     1
 44
1.0
1001
ACAD
1000
MTEXTBEGIN
1070
    73
1070
     1
1070
    44
1040
1.0
1070
    74
1070
     0
1000
MTEXTEND
  0
MTEXT
  5
9DAA
330
1F
100
AcDbEntity
  8
0
 62
     0
370
    -3
100
AcDbMText
 10
5189.175859637355
 20
1150.36868074155
 30
0.0
 40
41.40333987970836
 41
215.2973673744835
 71
     5
 72
     5
  1
{\fMS Gothic|b0|i0|c128|p49;大久保}
 73
     1
 44
1.0
1001
ACAD
1000
MTEXTBEGIN
1070
    73
1070
     1
1070
    44
1040
1.0
1070
    74
1070
     0
1000
MTEXTEND
  0
LINE
  5
9DAB
330
1F
100
AcDbEntity
  8
2
  6
Continuous
 62
     7
100
AcDbLine
 10
5081.527175950032
 20
1313.792149207156
 30
0.0
 11
5081.527175950032
 21
1065.372109928912
 31
0.0
  0
MTEXT
  5
9DAC
330
1F
100
AcDbEntity
  8
0
370
    -3
100
AcDbMText
 10
5334.087549216318
 20
941.1620902896684
 30
0.0
 40
32.53119561977086
 41
0.0
 71
     5
 72
     5
  1
{\fＭＳ ゴシック|b0|i0|c128|p49;度}
 73
     1
 44
1.0
1001
ACAD
1000
MTEXTBEGIN
1070
    73
1070
     1
1070
    44
1040
1.0
1070
    74
1070
     0
1000
MTEXTEND
  0
MTEXT
  5
9DAD
330
1F
100
AcDbEntity
  8
0
370
    -3
100
AcDbMText
 10
5334.087549216318
 20
1023.968770049134
 30
0.0
 40
32.53119561977086
 41
0.0000000000002522
 71
     5
 72
     5
  1
{\fＭＳ ゴシック|b0|i0|c128|p49;尺}
 73
     1
 44
1.0
1001
ACAD
1000
MTEXTBEGIN
1070
    73
1070
     1
1070
    44
1040
1.0
1070
    74
1070
     0
1000
MTEXTEND
  0
MTEXT
  5
9DAE
330
1F
100
AcDbEntity
  8
0
370
    -3
100
AcDbMText
 10
5404.47322701171
 20
1272.388809327356
 30
0.0
 40
32.53119561977086
 41
223.5780353504251
 71
     5
 72
     5
  1
{\fＭＳ ゴシック|b0|i0|c128|p49;検　図}
 73
     1
 44
1.0
1001
ACAD
1000
MTEXTBEGIN
1070
    73
1070
     1
1070
    44
1040
1.0
1070
    74
1070
     0
1000
MTEXTEND
  0
MTEXT
  5
9DAF
330
1F
100
AcDbEntity
  8
0
370
    -3
100
AcDbMText
 10
5772.962951941154
 20
1210.283799507801
 30
0.0
 40
44.36072129968752
 41
78.34606136366217
 71
     5
 72
     5
  1
{\fＭＳ ゴシック|b0|i0|c128|p49;名}
 73
     1
 44
1.0
1001
ACAD
1000
MTEXTBEGIN
1070
    73
1070
     1
1070
    44
1040
1.0
1070
    74
1070
     0
1000
MTEXTEND
  0
MTEXT
  5
9DB0
330
1F
100
AcDbEntity
  8
0
370
    -3
100
AcDbMText
 10
5619.770594386238
 20
1272.388809327356
 30
0.0
 40
32.53119561977086
 41
223.5780353504251
 71
     5
 72
     5
  1
{\fＭＳ ゴシック|b0|i0|c128|p49;承　認}
 73
     1
 44
1.0
1001
ACAD
1000
MTEXTBEGIN
1070
    73
1070
     1
1070
    44
1040
1.0
1070
    74
1070
     0
1000
MTEXTEND
  0
MTEXT
  5
9DB1
330
1F
100
AcDbEntity
  8
0
370
    -3
100
AcDbMText
 10
5772.962951941154
 20
1003.26710010934
 30
0.0
 40
44.36072129968752
 41
78.34606136366217
 71
     5
 72
     5
  1
{\fＭＳ ゴシック|b0|i0|c128|p49;称}
 73
     1
 44
1.0
1001
ACAD
1000
MTEXTBEGIN
1070
    73
1070
     1
1070
    44
1040
1.0
1070
    74
1070
     0
1000
MTEXTEND
  0
LINE
  5
9DB2
330
1F
100
AcDbEntity
  8
2
  6
Continuous
 62
     7
100
AcDbLine
 10
6737.660771138471
 20
749.6772028766281
 30
0.0
 11
6853.590122801525
 21
749.6772028766281
 31
0.0
  0
LINE
  5
9DB3
330
1F
100
AcDbEntity
  8
2
  6
Continuous
 62
     7
100
AcDbLine
 10
6795.625635277284
 20
850.0749932186227
 30
0.0
 11
6853.590317071667
 21
749.6772330766908
 31
0.0
  0
LINE
  5
9DB4
330
1F
100
AcDbEntity
  8
2
  6
Continuous
 62
     7
100
AcDbLine
 10
6737.661908046284
 20
749.6762839492657
 30
0.0
 11
6795.626558252407
 21
850.0739893788704
 31
0.0
  0
LINE
  5
9DB5
330
1F
100
AcDbEntity
  8
2
  6
Continuous
 62
     7
100
AcDbLine
 10
6812.186782921781
 20
1520.808848605629
 30
0.0
 11
6886.712794705309
 21
1520.808848605629
 31
0.0
  0
MTEXT
  5
9DB6
330
1F
100
AcDbEntity
  8
0
370
    -3
100
AcDbMText
 10
5118.790181841788
 20
982.5654301693139
 30
0.0
 40
41.40329415716482
 41
341.2154518476562
 71
     5
 72
     5
  1
{\fMS Gothic|b0|i0|c128|p49;2023・4・17}
 73
     1
 44
1.0
1001
ACAD
1000
MTEXTBEGIN
1070
    73
1070
     1
1070
    44
1040
1.0
1070
    74
1070
     0
1000
MTEXTEND
  0
MTEXT
  5
9DB7
330
1F
100
AcDbEntity
  8
0
370
    -3
100
AcDbMText
 10
5586.149657869682
 20
950.4200307943392
 30
0.0
 40
41.40329415716482
 41
45.60391420685941
 71
     5
 72
     5
  1
{\fMS Gothic|b0|i0|c128|p49;15}
 73
     1
 44
1.0
1001
ACAD
1000
MTEXTBEGIN
1070
    73
1070
     1
1070
    44
1040
1.0
1070
    74
1070
     0
1000
MTEXTEND
  0
MTEXT
  5
9DB8
330
1F
100
AcDbEntity
  8
0
370
    -3
100
AcDbMText
 10
5509.359946843265
 20
1021.078938292921
 30
0.0
 40
41.40329415716482
 41
36.34907773349782
 71
     5
 72
     5
  1
{\fMS Gothic|b0|i0|c128|p49;1}
 73
     1
 44
1.0
1001
ACAD
1000
MTEXTBEGIN
1070
    73
1070
     1
1070
    44
1040
1.0
1070
    74
1070
     0
1000
MTEXTEND
  0
MTEXT
  5
9DB9
330
1F
100
AcDbEntity
  8
0
 62
     0
370
    -3
100
AcDbMText
 10
5926.21200301699
 20
1142.50870142231
 30
0.0
 40
69.99999999159992
 41
1068.206849254589
 71
     1
 72
     5
  1
{\fMS Gothic|b0|i0|c128|p49;スリムタンク2000}
 73
     1
 44
1.0
1001
ACAD
1000
MTEXTBEGIN
1070
    73
1070
     1
1070
    44
1040
1.0
1070
    74
1070
     0
1000
MTEXTEND
  0
MTEXT
  5
9DBA
330
1F
100
AcDbEntity
  8
0
 62
     0
370
    -3
100
AcDbMText
 10
4973.878492262883
 20
1150.36868074155
 30
0.0
 40
41.40333987970836
 41
215.2973673744835
 71
     5
 72
     5
  1
{\fMS Gothic|b0|i0|c128|p49;大久保}
 73
     1
 44
1.0
1001
ACAD
1000
MTEXTBEGIN
1070
    73
1070
     1
1070
    44
1040
1.0
1070
    74
1070
     0
1000
MTEXTEND
  0
MTEXT
  5
9DE9
330
1F
100
AcDbEntity
  8
0
 62
     0
370
    -3
100
AcDbMText
 10
5849.12624135756
 20
829.3297347175538
 30
0.0
 40
69.99999999159992
 41
1068.206849254589
 71
     1
 72
     5
  1
{\fMS Gothic|b0|i0|c128|p49;２０２２１１２７-１}
 73
     1
 44
1.0
1001
ACAD
1000
MTEXTBEGIN
1070
    73
1070
     1
1070
    44
1040
1.0
1070
    74
1070
     0
1000
MTEXTEND
  0
LINE
  5
A1DA
330
1F
100
AcDbEntity
  8
本体
  6
HIDDEN
370
     9
100
AcDbLine
 10
2036.843417185279
 20
1585.199369936119
 30
0.0
 11
3226.843417185282
 21
1585.199369936117
 31
0.0
  0
LINE
  5
A1DB
330
1F
100
AcDbEntity
  8
本体
370
    -3
100
AcDbLine
 10
2036.843417185279
 20
1578.199369936119
 30
0.0
 11
3226.843417185286
 21
1578.199369936117
 31
0.0
  0
LINE
  5
A1DC
330
1F
100
AcDbEntity
  8
本体
370
    -3
100
AcDbLine
 10
2006.843417185937
 20
3408.199369936119
 30
0.0
 11
3226.843417185286
 21
3408.199369936119
 31
0.0
  0
LINE
  5
A1DD
330
1F
100
AcDbEntity
  8
中心
 48
2.0
370
     9
100
AcDbLine
 10
2631.843417185283
 20
3731.730523068793
 30
0.0
 11
2631.843417185283
 21
1555.199369936119
 31
0.0
  0
DIMENSION
  5
A1DE
330
1F
100
AcDbEntity
  8
寸法線
 62
     7
370
     9
100
AcDbDimension
  2
*D39
 10
3249.843417185282
 20
1279.063104623507
 30
0.0
 11
2631.843417185283
 21
1314.063104623506
 31
0.0
 70
    32
  1
{\Fsimplex.shx,extfont.shx|c128;φ}<>
 71
     5
 42
1236.0
  3
ISO-25
100
AcDbAlignedDimension
 13
2013.843417185282
 23
1615.199369936119
 33
0.0
 14
3249.843417185282
 24
1615.199369936119
 34
0.0
100
AcDbRotatedDimension
1001
ACAD
1000
DSTYLE
1002
{
1070
   340
1005
783
1070
   147
1040
10.0
1070
   140
1040
50.0
1070
    42
1040
20.0
1070
    44
1040
30.0
1070
   343
1005
71F
1070
   173
1070
     1
1070
   344
1005
71F
1070
    41
1040
40.0
1002
}
  0
DIMENSION
  5
A1DF
330
1F
100
AcDbEntity
  8
寸法線
 62
     7
370
     9
100
AcDbDimension
  2
*D40
 10
3256.843417185282
 20
1140.350279462995
 30
0.0
 11
2631.843417185283
 21
1175.350279462995
 31
0.0
 70
    32
  1
{\Fsimplex.shx,extfont.shx|c128;φ}<>
 71
     5
 42
1250.0
  3
ISO-25
100
AcDbAlignedDimension
 13
2006.843417185283
 23
1615.199369936119
 33
0.0
 14
3256.843417185282
 24
1615.199372408298
 34
0.0
100
AcDbRotatedDimension
1001
ACAD
1000
DSTYLE
1002
{
1070
   340
1005
783
1070
   147
1040
10.0
1070
   140
1040
50.0
1070
    42
1040
20.0
1070
    44
1040
30.0
1070
   343
1005
71F
1070
   173
1070
     1
1070
   344
1005
71F
1070
    41
1040
40.0
1002
}
  0
LINE
  5
A1E0
330
1F
100
AcDbEntity
  8
本体
 48
2.0
370
    -3
100
AcDbLine
 10
2006.843417185279
 20
1608.19936993613
 30
0.0
 11
2006.843417185941
 21
3418.189151726453
 31
0.0
  0
ARC
  5
A1E1
330
1F
100
AcDbEntity
  8
本体
 48
2.0
370
    -3
100
AcDbCircle
 10
2036.843417185279
 20
1608.199369936119
 30
0.0
 40
30.0
100
AcDbArc
 50
179.9999999999804
 51
270.0
  0
ARC
  5
A1E2
330
1F
100
AcDbEntity
  8
本体
370
    -3
100
AcDbCircle
 10
2036.843417185279
 20
1608.199369936119
 30
0.0
 40
23.0
100
AcDbArc
 50
179.9999999999804
 51
270.0
  0
LINE
  5
A1E3
330
1F
100
AcDbEntity
  8
本体
  6
HIDDEN
370
     9
100
AcDbLine
 10
2013.843417185279
 20
1608.199369936128
 30
0.0
 11
2013.843417185282
 21
3418.199507858412
 31
0.0
  0
LINE
  5
A1E4
330
1F
100
AcDbEntity
  8
本体
 48
2.0
370
    -3
100
AcDbLine
 10
3256.843417185286
 20
1608.199369936123
 30
0.0
 11
3256.843417184951
 21
3420.194263845373
 31
0.0
  0
ARC
  5
A1E5
330
1F
100
AcDbEntity
  8
本体
 48
2.0
370
    -3
100
AcDbCircle
 10
3226.843417185286
 20
1608.199369936117
 30
0.0
 40
30.0
100
AcDbArc
 50
270.0
 51
0.0000000000130276
  0
LINE
  5
A1E6
330
1F
100
AcDbEntity
  8
本体
  6
HIDDEN
370
     9
100
AcDbLine
 10
3249.843417185282
 20
1608.199369936117
 30
0.0
 11
3249.843417185282
 21
3418.209612087009
 31
0.0
  0
ARC
  5
A1E7
330
1F
100
AcDbEntity
  8
本体
  6
HIDDEN
370
     9
100
AcDbCircle
 10
3226.843417185282
 20
1608.199369936117
 30
0.0
 40
23.0
100
AcDbArc
 50
270.0
 51
0.0
  0
LINE
  5
A1E8
330
1F
100
AcDbEntity
  8
中心
  6
CENTER
 48
0.5
370
     9
100
AcDbLine
 10
2141.843417185282
 20
3518.201535258199
 30
0.0
 11
2141.843417185282
 21
3578.201535258199
 31
0.0
  0
DIMENSION
  5
A1E9
330
1F
100
AcDbEntity
  8
寸法線
 62
     0
370
     9
100
AcDbDimension
  2
*D24
 10
2266.263210957685
 20
3766.019945889989
 30
0.0
 11
2144.029016252607
 21
3801.019945889988
 31
0.0
 70
    32
 71
     5
 42
244.4683894101545
  3
ISO-25
100
AcDbAlignedDimension
 13
2021.79482154753
 23
3548.199572865028
 33
0.0
 14
2266.263210957685
 24
3548.201535258198
 34
0.0
100
AcDbRotatedDimension
1001
ACAD
1000
DSTYLE
1002
{
1070
   271
1070
     0
1070
   340
1005
783
1070
   147
1040
10.0
1070
   140
1040
50.0
1070
    42
1040
20.0
1070
    44
1040
30.0
1070
   343
1005
71F
1070
   173
1070
     1
1070
   344
1005
71F
1070
    41
1040
40.0
1002
}
  0
LINE
  5
A1EA
330
1F
100
AcDbEntity
  8
本体
370
    -3
100
AcDbLine
 10
2381.842790912156
 20
3641.204562319663
 30
0.0
 11
2381.842790912156
 21
3666.204522868766
 31
0.0
  0
LINE
  5
A1EB
330
1F
100
AcDbEntity
  8
本体
370
    -3
100
AcDbLine
 10
2381.842790912156
 20
3666.204522868766
 30
0.0
 11
2881.842802982097
 21
3666.204522868766
 31
0.0
  0
LINE
  5
A1EC
330
1F
100
AcDbEntity
  8
本体
370
    -3
100
AcDbLine
 10
2381.842790912156
 20
3641.204562319663
 30
0.0
 11
2881.842802982097
 21
3641.204562319663
 31
0.0
  0
LINE
  5
A1ED
330
1F
100
AcDbEntity
  8
本体
370
    -3
100
AcDbLine
 10
2881.842802982097
 20
3641.204562319663
 30
0.0
 11
2881.842802982097
 21
3666.204522868766
 31
0.0
  0
ARC
  5
A1EE
330
1F
100
AcDbEntity
  8
本体
370
    -3
100
AcDbCircle
 10
2631.842796947134
 20
2773.706286030023
 30
0.0
 40
912.4982739427
100
AcDbArc
 50
77.9819636409469
 51
102.0180550283924
  0
DIMENSION
  5
A1EF
330
1F
100
AcDbEntity
  8
寸法線
 62
     7
370
     9
100
AcDbDimension
  2
*D25
 10
2821.842799908391
 20
3849.595388193307
 30
0.0
 11
2631.842796946796
 21
3884.595388193308
 31
0.0
 70
    32
  1
{\Fsimplex.shx,extfont.shx|c128;φ<>}
 71
     5
 42
380.0000059231897
  3
ISO-25
100
AcDbAlignedDimension
 13
2441.842793985201
 23
3638.209669355813
 33
0.0
 14
2821.842799908391
 24
3638.209669355813
 34
0.0
100
AcDbRotatedDimension
1001
ACAD
1000
DSTYLE
1002
{
1070
   340
1005
783
1070
   147
1040
10.0
1070
   140
1040
50.0
1070
    42
1040
20.0
1070
    44
1040
30.0
1070
   343
1005
71F
1070
   173
1070
     1
1070
   344
1005
71F
1070
    41
1040
40.0
1002
}
  0
LINE
  5
A1F0
330
1F
100
AcDbEntity
  8
本体
370
    -3
100
AcDbLine
 10
2631.842648282382
 20
3641.204562319583
 30
0.0
 11
2414.342793985689
 21
3641.204562319583
 31
0.0
  0
LINE
  5
A1F1
330
1F
100
AcDbEntity
  8
本体
370
    -3
100
AcDbLine
 10
2411.843417185282
 20
3641.204562319743
 30
0.0
 11
2411.843417185279
 21
3596.347236686688
 31
0.0
  0
LINE
  5
A1F2
330
1F
100
AcDbEntity
  8
本体
370
    -3
100
AcDbLine
 10
2030.687398508712
 20
3548.201535258198
 30
0.0
 11
2264.936925886155
 21
3548.201535258198
 31
0.0
  0
ARC
  5
A1F3
330
1F
100
AcDbEntity
  8
本体
370
     9
100
AcDbCircle
 10
2030.687398508712
 20
3538.201535258199
 30
0.0
 40
10.0
100
AcDbArc
 50
90.0
 51
173.2892053265426
  0
LINE
  5
A1F4
330
1F
100
AcDbEntity
  8
本体
370
    -3
100
AcDbLine
 10
2631.844036956227
 20
3641.204562319583
 30
0.0
 11
2849.34389125292
 21
3641.204562319583
 31
0.0
  0
LINE
  5
A1F5
330
1F
100
AcDbEntity
  8
本体
370
    -3
100
AcDbLine
 10
2516.120426437308
 20
3548.204559968366
 30
0.0
 11
2747.564209609605
 21
3548.204559968366
 31
0.0
1001
DEKIMAS
1000
実線（中）
1040
0.25
1001
DIMEXPLODE
1070
     0
  0
LINE
  5
A1F6
330
1F
100
AcDbEntity
  8
本体
370
    -3
100
AcDbLine
 10
2506.148463545585
 20
3538.952446333766
 30
0.0
 11
2491.842279876488
 21
3418.203415471501
 31
0.0
1001
DEKIMAS
1000
実線（中）
1040
0.25
1001
DIMEXPLODE
1070
     0
  0
LINE
  5
A1F7
330
1F
100
AcDbEntity
  8
本体
370
    -3
100
AcDbLine
 10
2757.536228824407
 20
3538.952469751766
 30
0.0
 11
2771.842317144772
 21
3418.20570445563
 31
0.0
1001
DEKIMAS
1000
実線（中）
1040
0.25
1001
DIMEXPLODE
1070
     0
  0
ARC
  5
A1F8
330
1F
100
AcDbEntity
  8
本体
 48
0.5
370
    -3
100
AcDbCircle
 10
2516.120426437308
 20
3538.204560117367
 30
0.0
 40
9.9999998509884
100
AcDbArc
 50
90.00000432566835
 51
175.7108512295407
1001
DEKIMAS
1000
実線（中）
1040
0.25
1001
DIMEXPLODE
1070
     0
  0
ARC
  5
A1F9
330
1F
100
AcDbEntity
  8
本体
 48
0.5
370
    -3
100
AcDbCircle
 10
2747.564209609605
 20
3538.204560117367
 30
0.0
 40
9.9999998509884
100
AcDbArc
 50
4.289148884164877
 51
90.00000432566835
1001
DEKIMAS
1000
実線（中）
1040
0.25
1001
DIMEXPLODE
1070
     0
  0
MTEXT
  5
A1FA
330
1F
100
AcDbEntity
  8
本体
370
    -3
100
AcDbMText
 10
3000.139168280559
 20
3474.779470655061
 30
0.0
 40
40.0
 41
249.0145569449887
 71
     1
 72
     5
  1
{\fMS Gothic|b0|i0|c128|p49;2198L}
 73
     1
 44
1.0
1001
ACAD
1000
MTEXTBEGIN
1070
    73
1070
     1
1070
    44
1040
1.0
1070
    74
1070
     0
1000
MTEXTEND
  0
ARC
  5
A1FB
330
1F
100
AcDbEntity
  8
本体
 48
2.0
370
    -3
100
AcDbCircle
 10
2631.842648282382
 20
2196.775741880938
 30
0.0
 40
1400.0
100
AcDbArc
 50
99.73046932621768
 51
115.2092495186499
  0
ARC
  5
A1FC
330
1F
100
AcDbEntity
  8
本体
 48
2.0
370
    -3
100
AcDbCircle
 10
2391.843417185282
 20
3596.347236686688
 30
0.0
 40
20.0
100
AcDbArc
 50
279.7304693262206
 51
0.0
  0
ARC
  5
A1FD
330
1F
100
AcDbEntity
  8
本体
 48
2.0
370
    -3
100
AcDbCircle
 10
2264.936925886155
 20
3558.201535258199
 30
0.0
 40
10.0
100
AcDbArc
 50
270.0
 51
285.0829281219975
  0
ARC
  5
A1FE
330
1F
100
AcDbEntity
  8
本体
 48
2.0
370
    -3
100
AcDbCircle
 10
2056.843417185613
 20
3418.199453881866
 30
0.0
 40
50.0
100
AcDbArc
 50
115.2092495186499
 51
180.0
  0
DIMENSION
  5
A1FF
330
1F
100
AcDbEntity
  8
寸法線
 62
     7
370
     9
100
AcDbDimension
  2
*D26
 10
1722.765642279355
 20
1578.199369936417
 30
0.0
 11
1687.765642279355
 21
2609.701966128041
 31
0.0
 70
    32
 71
     5
 42
2063.005192383245
  3
ISO-25
100
AcDbAlignedDimension
 13
2381.842790912156
 23
3641.204562319663
 33
0.0
 14
2043.843268520373
 24
1578.199369936417
 34
0.0
 50
270.0
100
AcDbRotatedDimension
1001
ACAD
1000
DSTYLE
1002
{
1070
   271
1070
     0
1070
   340
1005
783
1070
   147
1040
10.0
1070
   140
1040
50.0
1070
    42
1040
20.0
1070
    44
1040
30.0
1070
   343
1005
71F
1070
   173
1070
     1
1070
   344
1005
71F
1070
    41
1040
40.0
1002
}
  0
DIMENSION
  5
A200
330
1F
100
AcDbEntity
  8
寸法線
 62
     7
370
     9
100
AcDbDimension
  2
*D27
 10
1602.155417078353
 20
1578.199369936417
 30
0.0
 11
1567.155417078352
 21
2633.199369936269
 31
0.0
 70
    32
 71
     5
 42
2109.999999999702
  3
ISO-25
100
AcDbAlignedDimension
 13
2631.843417185283
 23
3688.19936993612
 33
0.0
 14
2043.843268520373
 24
1578.199369936417
 34
0.0
 50
270.0
100
AcDbRotatedDimension
1001
ACAD
1000
DSTYLE
1002
{
1070
   340
1005
783
1070
   147
1040
10.0
1070
   140
1040
50.0
1070
    42
1040
20.0
1070
    44
1040
30.0
1070
   343
1005
71F
1070
   173
1070
     1
1070
   344
1005
71F
1070
    41
1040
40.0
1002
}
  0
DIMENSION
  5
A201
330
1F
100
AcDbEntity
  8
寸法線
 62
     7
370
     9
100
AcDbDimension
  2
*D28
 10
1829.017469301532
 20
1578.199369936417
 30
0.0
 11
1794.017469301532
 21
2493.199369936269
 31
0.0
 70
    32
 71
     5
 42
1829.999999999701
  3
ISO-25
100
AcDbAlignedDimension
 13
2006.843417185937
 23
3408.199369936119
 33
0.0
 14
2043.843268520373
 24
1578.199369936417
 34
0.0
 50
270.0
100
AcDbRotatedDimension
1001
ACAD
1000
DSTYLE
1002
{
1070
   340
1005
783
1070
   147
1040
10.0
1070
   140
1040
50.0
1070
    42
1040
20.0
1070
    44
1040
30.0
1070
   343
1005
71F
1070
   173
1070
     1
1070
   344
1005
71F
1070
    41
1040
40.0
1002
}
  0
DIMENSION
  5
A202
330
1F
100
AcDbEntity
  8
寸法線
 62
     7
370
     9
100
AcDbDimension
  2
*D29
 10
1927.781625705694
 20
1578.199369936119
 30
0.0
 11
1892.781625705694
 21
2415.69936993612
 31
0.0
 70
    32
 71
     5
 42
1675.0
  3
ISO-25
100
AcDbAlignedDimension
 13
2006.843417185283
 23
3253.199369936119
 33
0.0
 14
2036.843417185362
 24
1578.199369936119
 34
0.0
 50
270.0
100
AcDbRotatedDimension
1001
ACAD
1000
DSTYLE
1002
{
1070
   340
1005
783
1070
   147
1040
10.0
1070
   140
1040
50.0
1070
    42
1040
20.0
1070
    44
1040
30.0
1070
   343
1005
71F
1070
   173
1070
     1
1070
   344
1005
71F
1070
    41
1040
40.0
1002
}
  0
ARC
  5
A203
330
1F
100
AcDbEntity
  8
本体
 48
2.0
370
    -3
100
AcDbCircle
 10
3206.843417184951
 20
3418.199453881866
 30
0.0
 40
50.0
100
AcDbArc
 50
0.0
 51
64.79075048135012
  0
LINE
  5
A204
330
1F
100
AcDbEntity
  8
本体
370
    -3
100
AcDbLine
 10
2851.843417185282
 20
3641.204562319663
 30
0.0
 11
2851.843417185282
 21
3596.347236686688
 31
0.0
  0
ARC
  5
A205
330
1F
100
AcDbEntity
  8
本体
 48
2.0
370
    -3
100
AcDbCircle
 10
2631.844186088183
 20
2196.775741880938
 30
0.0
 40
1400.0
100
AcDbArc
 50
64.79075048135012
 51
80.26953067378222
  0
ARC
  5
A206
330
1F
100
AcDbEntity
  8
本体
 48
2.0
370
    -3
100
AcDbCircle
 10
2871.843417185282
 20
3596.347236686688
 30
0.0
 40
20.0
100
AcDbArc
 50
180.0
 51
260.2695306737846
  0
LINE
  5
A207
330
1F
100
AcDbEntity
  8
破線
  6
PHANTOM1
 62
     4
 48
10.0
370
     9
100
AcDbLine
 10
2020.843417185879
 20
3253.199369936119
 30
0.0
 11
3256.84341718498
 21
3253.199369936119
 31
0.0
  0
MTEXT
  5
A208
330
1F
100
AcDbEntity
  8
本体
370
    -3
100
AcDbMText
 10
2855.500530863221
 20
3303.235997522256
 30
0.0
 40
40.0
 41
249.0145569449887
 71
     1
 72
     5
  1
{\fMS Gothic|b0|i0|c128|p49;2000L}
 73
     1
 44
1.0
1001
ACAD
1000
MTEXTBEGIN
1070
    73
1070
     1
1070
    44
1040
1.0
1070
    74
1070
     0
1000
MTEXTEND
  0
DIMENSION
  5
A209
330
1F
100
AcDbEntity
  8
寸法線
 62
     7
370
     9
100
AcDbDimension
  2
*D30
 10
3149.415771650307
 20
1585.199369936119
 30
0.0
 11
3114.415771650306
 21
2501.69936993612
 31
0.0
 70
    32
 71
     5
 42
1833.0
  3
ISO-25
100
AcDbAlignedDimension
 13
3175.930137550149
 23
3418.199369936119
 33
0.0
 14
3181.003289139288
 24
1585.199369936119
 34
0.0
 50
270.0
100
AcDbRotatedDimension
1001
ACAD
1000
DSTYLE
1002
{
1070
   340
1005
783
1070
   147
1040
10.0
1070
   140
1040
50.0
1070
    42
1040
20.0
1070
    44
1040
30.0
1070
   343
1005
71F
1070
   173
1070
     1
1070
   344
1005
71F
1070
    41
1040
40.0
1002
}
  0
DIMENSION
  5
A20A
330
1F
100
AcDbEntity
  8
寸法線
 62
     7
370
     9
100
AcDbDimension
  2
*D31
 10
2891.827020527602
 20
1585.199369936119
 30
0.0
 11
2856.827020527602
 21
2419.19936993612
 31
0.0
 70
    32
 71
     5
 42
1668.0
  3
ISO-25
100
AcDbAlignedDimension
 13
2918.341386427444
 23
3253.199369936119
 33
0.0
 14
2923.414538016583
 24
1585.199369936119
 34
0.0
 50
270.0
100
AcDbRotatedDimension
1001
ACAD
1000
DSTYLE
1002
{
1070
   340
1005
783
1070
   147
1040
10.0
1070
   140
1040
50.0
1070
    42
1040
20.0
1070
    44
1040
30.0
1070
   343
1005
71F
1070
   173
1070
     1
1070
   344
1005
71F
1070
    41
1040
40.0
1002
}
  0
DIMENSION
  5
A20B
330
1F
100
AcDbEntity
  8
寸法線
 62
     7
370
     9
100
AcDbDimension
  2
*D32
 10
1829.017469301532
 20
3408.199369936119
 30
0.0
 11
1794.017469301532
 21
3524.701966127891
 31
0.0
 70
    32
 71
     5
 42
233.0051923835435
  3
ISO-25
100
AcDbAlignedDimension
 13
2381.842790912156
 23
3641.204562319663
 33
0.0
 14
2006.843417185937
 24
3408.199369936119
 34
0.0
 50
270.0
100
AcDbRotatedDimension
1001
ACAD
1000
DSTYLE
1002
{
1070
   271
1070
     1
1070
   340
1005
783
1070
   147
1040
10.0
1070
   140
1040
50.0
1070
    42
1040
20.0
1070
    44
1040
30.0
1070
   343
1005
71F
1070
   173
1070
     1
1070
   344
1005
71F
1070
    41
1040
40.0
1002
}
  0
DIMENSION
  5
A20C
330
1F
100
AcDbEntity
  8
寸法線
 62
     7
370
     9
100
AcDbDimension
  2
*D33
 10
1955.956778666364
 20
3408.199369936119
 30
0.0
 11
1920.956778666364
 21
3478.200452597159
 31
0.0
 70
    32
 71
     5
 42
140.0021653220792
  3
ISO-25
100
AcDbAlignedDimension
 13
2021.795052450576
 23
3548.201535258198
 33
0.0
 14
2006.843417185937
 24
3408.199369936119
 34
0.0
 50
270.0
100
AcDbRotatedDimension
1001
ACAD
1000
DSTYLE
1002
{
1070
   271
1070
     1
1070
   340
1005
783
1070
   147
1040
10.0
1070
   140
1040
50.0
1070
    42
1040
20.0
1070
    44
1040
30.0
1070
   343
1005
71F
1070
   173
1070
     1
1070
   344
1005
71F
1070
    41
1040
40.0
1002
}
  0
DIMENSION
  5
A20D
330
1F
100
AcDbEntity
  8
寸法線
 62
     0
370
     9
100
AcDbDimension
  2
*D34
 10
2021.79482154753
 20
3766.019945889989
 30
0.0
 11
1846.84341718594
 21
3766.019945889989
 31
0.0
 70
   160
 71
     5
 42
14.95140436158908
  3
ISO-25
100
AcDbAlignedDimension
 13
2006.843417185941
 23
3418.189151726453
 33
0.0
 14
2021.79482154753
 24
3548.199572865028
 34
0.0
100
AcDbRotatedDimension
1001
ACAD
1000
DSTYLE
1002
{
1070
   271
1070
     1
1070
   340
1005
783
1070
   147
1040
10.0
1070
   140
1040
50.0
1070
    42
1040
20.0
1070
    44
1040
30.0
1070
   343
1005
71F
1070
   173
1070
     1
1070
   344
1005
71F
1070
    41
1040
40.0
1002
}
  0
DIMENSION
  5
A20E
330
1F
100
AcDbEntity
  8
寸法線
 62
     7
370
     9
100
AcDbDimension
  2
*D35
 10
2881.842802982097
 20
4023.22098519704
 30
0.0
 11
2631.842796947127
 21
4058.22098519704
 31
0.0
 70
    32
  1
{\Fsimplex.shx,extfont.shx|c128;φ<>}
 71
     5
 42
500.0000120699406
  3
ISO-25
100
AcDbAlignedDimension
 13
2381.842790912156
 23
3666.204522868764
 33
0.0
 14
2881.842802982097
 24
3666.204522868764
 34
0.0
100
AcDbRotatedDimension
1001
ACAD
1000
DSTYLE
1002
{
1070
   340
1005
783
1070
   147
1040
10.0
1070
   140
1040
50.0
1070
    42
1040
20.0
1070
    44
1040
30.0
1070
   343
1005
71F
1070
   173
1070
     1
1070
   344
1005
71F
1070
    41
1040
40.0
1002
}
  0
DIMENSION
  5
A20F
330
1F
100
AcDbEntity
  8
寸法線
 62
     7
370
     9
100
AcDbDimension
  2
*D36
 10
2851.843417185282
 20
3936.115847533496
 30
0.0
 11
2631.843417185283
 21
3971.115847533496
 31
0.0
 70
    32
  1
{\Fsimplex.shx,extfont.shx|c128;φ<>}
 71
     5
 42
440.0
  3
ISO-25
100
AcDbAlignedDimension
 13
2411.843417185282
 23
3641.204562319743
 33
0.0
 14
2851.843417185282
 24
3641.204562319663
 34
0.0
100
AcDbRotatedDimension
1001
ACAD
1000
DSTYLE
1002
{
1070
   340
1005
783
1070
   147
1040
10.0
1070
   140
1040
50.0
1070
    42
1040
20.0
1070
    44
1040
30.0
1070
   343
1005
71F
1070
   173
1070
     1
1070
   344
1005
71F
1070
    41
1040
40.0
1002
}
  0
DIMENSION
  5
A210
330
1F
100
AcDbEntity
  8
寸法線
 62
     7
370
     9
100
AcDbDimension
  2
*D37
 10
2013.843305787985
 20
3011.932479674768
 30
0.0
 11
2113.843305787985
 21
3046.932479674768
 31
0.0
 70
    32
 71
     5
 42
7.0
  3
ISO-25
100
AcDbAlignedDimension
 13
2006.843305787985
 23
2844.440983110977
 33
0.0
 14
2013.843305787985
 24
2844.440983110977
 34
0.0
100
AcDbRotatedDimension
1001
ACAD
1000
DSTYLE
1002
{
1070
   340
1005
783
1070
   147
1040
10.0
1070
   140
1040
50.0
1070
    42
1040
20.0
1070
    44
1040
30.0
1070
   343
1005
71F
1070
   173
1070
     1
1070
   344
1005
71F
1070
    41
1040
40.0
1002
}
  0
DIMENSION
  5
A211
330
1F
100
AcDbEntity
  8
寸法線
 62
     7
 48
2.0
370
     9
100
AcDbDimension
  2
*D38
 10
2631.84418608822
 20
2196.775741880927
 30
0.0
 11
3313.991506932432
 21
3864.744366697022
 31
0.0
 70
   164
 71
     5
 42
1399.999999999994
  3
ISO-25
100
AcDbRadialDimension
 15
3161.794749236251
 25
3492.596871751509
 35
0.0
 40
0.0
1001
ACAD
1000
DSTYLE
1002
{
1070
   147
1040
10.0
1070
   140
1040
50.0
1070
   344
1005
71F
1070
   173
1070
     1
1070
    41
1040
40.0
1070
   288
1070
     1
1002
}
  0
LINE
  5
A212
330
1F
100
AcDbEntity
  8
本体
 48
2.0
370
     9
100
AcDbLine
 10
2007.185984628384
 20
3424.042346301209
 30
0.0
 11
2020.755912000284
 21
3539.370113767738
 31
0.0
  0
LINE
  5
A213
330
1F
100
AcDbEntity
  8
SOZO
 48
2.0
370
     9
100
AcDbLine
 10
2021.009837580598
 20
3541.528170290624
 30
0.0
 11
2021.795052450576
 21
3548.201535258198
 31
0.0
  0
LINE
  5
A214
330
1F
100
AcDbEntity
  8
SOZO
 48
2.0
370
     9
100
AcDbLine
 10
2021.795052450576
 20
3548.201535258198
 30
0.0
 11
2026.251201060724
 21
3548.201535258198
 31
0.0
  0
LINE
  5
A215
330
1F
100
AcDbEntity
  8
SOZO
 48
0.5
370
     9
100
AcDbLine
 10
2264.936925886155
 20
3548.201535258198
 30
0.0
 11
2266.263210957681
 21
3548.201535258198
 31
0.0
  0
LINE
  5
A216
330
1F
100
AcDbEntity
  8
中心
  6
CENTER
 48
0.5
370
     9
100
AcDbLine
 10
3121.843417185282
 20
3518.201535258199
 30
0.0
 11
3121.843417185282
 21
3578.201535258199
 31
0.0
  0
LINE
  5
A217
330
1F
100
AcDbEntity
  8
本体
370
    -3
100
AcDbLine
 10
3232.999435861857
 20
3548.201535258198
 30
0.0
 11
2998.749908484409
 21
3548.201535258198
 31
0.0
  0
ARC
  5
A218
330
1F
100
AcDbEntity
  8
本体
370
     9
100
AcDbCircle
 10
3232.999435861857
 20
3538.201535258199
 30
0.0
 40
10.0
100
AcDbArc
 50
6.71079467345739
 51
90.0
  0
ARC
  5
A219
330
1F
100
AcDbEntity
  8
本体
 48
2.0
370
    -3
100
AcDbCircle
 10
2998.749908484409
 20
3558.201535258199
 30
0.0
 40
10.0
100
AcDbArc
 50
254.9170718780025
 51
270.0
  0
LINE
  5
A21A
330
1F
100
AcDbEntity
  8
本体
 48
2.0
370
     9
100
AcDbLine
 10
3256.500849742181
 20
3424.042346301209
 30
0.0
 11
3242.93092237028
 21
3539.370113767738
 31
0.0
  0
LINE
  5
A21B
330
1F
100
AcDbEntity
  8
SOZO
 48
2.0
370
     9
100
AcDbLine
 10
3242.676996789967
 20
3541.528170290624
 30
0.0
 11
3241.891781919989
 21
3548.201535258198
 31
0.0
  0
LINE
  5
A21C
330
1F
100
AcDbEntity
  8
SOZO
 48
2.0
370
     9
100
AcDbLine
 10
3241.891781919989
 20
3548.201535258198
 30
0.0
 11
3237.435633309841
 21
3548.201535258198
 31
0.0
  0
LINE
  5
A21D
330
1F
100
AcDbEntity
  8
SOZO
 48
0.5
370
     9
100
AcDbLine
 10
2998.749908484409
 20
3548.201535258198
 30
0.0
 11
2997.423623412884
 21
3548.201535258198
 31
0.0
  0
LINE
  5
A386
330
1F
100
AcDbEntity
  8
中心
  6
CENTER
 48
2.0
370
     9
100
AcDbLine
 10
6028.898965826357
 20
3441.086484624565
 30
0.0
 11
4578.89896582983
 21
3441.086485094207
 31
0.0
1001
DEKIMAS
1000
一点鎖線（細）
1040
0.15
1001
DIMEXPLODE
1070
     0
  0
LINE
  5
A387
330
1F
100
AcDbEntity
  8
中心
  6
CENTER
 48
2.0
370
     9
100
AcDbLine
 10
5303.89732795937
 20
2841.086484850188
 30
0.0
 11
5303.8973284311
 21
4041.086484850166
 31
0.0
1001
DEKIMAS
1000
一点鎖線（細）
1040
0.15
1001
DIMEXPLODE
1070
     0
  0
CIRCLE
  5
A388
330
1F
100
AcDbEntity
  8
本体
370
    -3
100
AcDbCircle
 10
5303.897328184979
 20
3441.086484850177
 30
0.0
 40
249.9999962747
1001
DEKIMAS
1000
実線（中）
1040
0.25
  0
CIRCLE
  5
A389
330
1F
100
AcDbEntity
  8
本体
370
    -3
100
AcDbCircle
 10
5303.897328184979
 20
3441.086484850177
 30
0.0
 40
189.99999716877
1001
DEKIMAS
1000
実線（中）
1040
0.25
  0
LINE
  5
A38A
330
1F
100
AcDbEntity
  8
本体
 62
     3
370
    -3
100
AcDbLine
 10
5428.896599711155
 20
4038.142254049866
 30
0.0
 11
5428.896599711151
 21
3806.661264085302
 31
0.0
  0
LINE
  5
A38B
330
1F
100
AcDbEntity
  8
本体
 62
     3
370
    -3
100
AcDbLine
 10
5178.896603436457
 20
4038.141264085301
 30
0.0
 11
5178.896603436453
 21
3806.661264085302
 31
0.0
  0
LINE
  5
A38C
330
1F
100
AcDbEntity
  8
本体
 62
     3
370
    -3
100
AcDbLine
 10
5443.896599711152
 20
4050.205986165809
 30
0.0
 11
5428.896599711151
 21
3806.661264085302
 31
0.0
  0
LINE
  5
A38D
330
1F
100
AcDbEntity
  8
本体
 62
     3
370
    -3
100
AcDbLine
 10
5163.897328407169
 20
4050.205797046396
 30
0.0
 11
5178.896603436453
 21
3806.661264085302
 31
0.0
  0
LINE
  5
A38E
330
1F
100
AcDbEntity
  8
本体
 62
     3
370
    -3
100
AcDbLine
 10
5443.896599711152
 20
4050.205986165809
 30
0.0
 11
5428.896599711155
 21
4038.142254049866
 31
0.0
  0
LINE
  5
A38F
330
1F
100
AcDbEntity
  8
本体
 62
     3
370
    -3
100
AcDbLine
 10
5163.897328407169
 20
4050.205797046396
 30
0.0
 11
5178.896603436457
 21
4038.141264085301
 31
0.0
  0
DIMENSION
  5
A390
330
1F
100
AcDbEntity
  8
寸法線
 62
     7
370
     9
100
AcDbDimension
  2
*D41
 10
5428.896599708401
 20
4170.734940870316
 30
0.0
 11
5303.896812429306
 21
4200.734940870315
 31
0.0
 70
    32
 71
     5
 42
249.9995745581909
  3
ISO-25
100
AcDbAlignedDimension
 13
5178.89702515021
 23
4031.279298978919
 33
0.0
 14
5428.896599708401
 24
4031.27949086912
 34
0.0
100
AcDbRotatedDimension
1001
ACAD
1000
DSTYLE
1002
{
1070
   340
1005
783
1070
   147
1040
10.0
1070
   140
1040
40.0
1070
    42
1040
20.0
1070
    44
1040
30.0
1070
   343
1005
71F
1070
   173
1070
     1
1070
   344
1005
71F
1070
    41
1040
40.0
1002
}
  0
DIMENSION
  5
A391
330
1F
100
AcDbEntity
  8
寸法線
 62
     7
370
     9
100
AcDbDimension
  2
*D42
 10
5443.896599708406
 20
4257.760485067673
 30
0.0
 11
5303.896601571056
 21
4287.760485067672
 31
0.0
 70
    32
 71
     5
 42
279.9999962746988
  3
ISO-25
100
AcDbAlignedDimension
 13
5163.896603433706
 23
4042.97035743363
 33
0.0
 14
5443.896599708406
 24
4042.970678629353
 34
0.0
100
AcDbRotatedDimension
1001
ACAD
1000
DSTYLE
1002
{
1070
   340
1005
783
1070
   147
1040
10.0
1070
   140
1040
40.0
1070
    42
1040
20.0
1070
    44
1040
30.0
1070
   343
1005
71F
1070
   173
1070
     1
1070
   344
1005
71F
1070
    41
1040
40.0
1002
}
  0
CIRCLE
  5
A392
330
1F
100
AcDbEntity
  8
本体
 62
     3
 48
2.0
370
    -3
100
AcDbCircle
 10
5303.898965828095
 20
3441.087958266855
 30
0.0
 40
625.0
  0
CIRCLE
  5
A393
330
1F
100
AcDbEntity
  8
本体
 62
     3
 48
2.0
370
    -3
100
AcDbCircle
 10
5303.898965828095
 20
3441.086484859385
 30
0.0
 40
625.0
  0
ARC
  5
A394
330
1F
100
AcDbEntity
  8
本体
 48
2.0
370
    -3
100
AcDbCircle
 10
5303.898965828095
 20
3441.086484859385
 30
0.0
 40
610.0
100
AcDbArc
 50
78.17552625247913
 51
101.8249275139058
  0
CIRCLE
  5
A395
330
1F
100
AcDbEntity
  8
中心
370
     9
100
AcDbCircle
 10
5303.898965828095
 20
3441.087958266855
 30
0.0
 40
490.0
  0
LINE
  5
A396
330
1F
100
AcDbEntity
  8
本体
 62
     3
370
    -3
100
AcDbLine
 10
4706.843196637612
 20
3566.084118742445
 30
0.0
 11
4938.324186602178
 21
3566.084118742441
 31
0.0
  0
LINE
  5
A397
330
1F
100
AcDbEntity
  8
本体
 62
     3
370
    -3
100
AcDbLine
 10
4706.844186602178
 20
3316.084122467746
 30
0.0
 11
4938.324186602178
 21
3316.084122467743
 31
0.0
  0
LINE
  5
A398
330
1F
100
AcDbEntity
  8
本体
 62
     3
370
    -3
100
AcDbLine
 10
4694.779464521671
 20
3581.084118742442
 30
0.0
 11
4938.324186602178
 21
3566.084118742441
 31
0.0
  0
LINE
  5
A399
330
1F
100
AcDbEntity
  8
本体
 62
     3
370
    -3
100
AcDbLine
 10
4694.779653641086
 20
3301.084847438459
 30
0.0
 11
4938.324186602178
 21
3316.084122467743
 31
0.0
  0
LINE
  5
A39A
330
1F
100
AcDbEntity
  8
本体
 62
     3
370
    -3
100
AcDbLine
 10
4694.779464521671
 20
3581.084118742442
 30
0.0
 11
4706.843196637612
 21
3566.084118742445
 31
0.0
  0
LINE
  5
A39B
330
1F
100
AcDbEntity
  8
本体
 62
     3
370
    -3
100
AcDbLine
 10
4694.779653641086
 20
3301.084847438459
 30
0.0
 11
4706.844186602178
 21
3316.084122467746
 31
0.0
  0
ARC
  5
A39C
330
1F
100
AcDbEntity
  8
本体
 48
2.0
370
    -3
100
AcDbCircle
 10
5303.898965828095
 20
3441.086484859383
 30
0.0
 40
610.0
100
AcDbArc
 50
168.1755262524757
 51
191.8249275138713
  0
LINE
  5
A39D
330
1F
100
AcDbEntity
  8
本体
 62
     3
370
    -3
100
AcDbLine
 10
5178.901331945031
 20
2844.030715668904
 30
0.0
 11
5178.901331945035
 21
3075.511705633468
 31
0.0
  0
LINE
  5
A39E
330
1F
100
AcDbEntity
  8
本体
 62
     3
370
    -3
100
AcDbLine
 10
5428.90132821973
 20
2844.031705633468
 30
0.0
 11
5428.901328219733
 21
3075.511705633468
 31
0.0
  0
LINE
  5
A39F
330
1F
100
AcDbEntity
  8
本体
 62
     3
370
    -3
100
AcDbLine
 10
5163.901331945035
 20
2831.96698355296
 30
0.0
 11
5178.901331945035
 21
3075.511705633468
 31
0.0
  0
LINE
  5
A3A0
330
1F
100
AcDbEntity
  8
本体
 62
     3
370
    -3
100
AcDbLine
 10
5443.900603249018
 20
2831.967172672374
 30
0.0
 11
5428.901328219733
 21
3075.511705633468
 31
0.0
  0
LINE
  5
A3A1
330
1F
100
AcDbEntity
  8
本体
 62
     3
370
    -3
100
AcDbLine
 10
5163.901331945035
 20
2831.96698355296
 30
0.0
 11
5178.901331945031
 21
2844.030715668904
 31
0.0
  0
LINE
  5
A3A2
330
1F
100
AcDbEntity
  8
本体
 62
     3
370
    -3
100
AcDbLine
 10
5443.900603249018
 20
2831.967172672374
 30
0.0
 11
5428.90132821973
 21
2844.031705633468
 31
0.0
  0
ARC
  5
A3A3
330
1F
100
AcDbEntity
  8
本体
 48
2.0
370
    -3
100
AcDbCircle
 10
5303.898965828095
 20
3441.086484859385
 30
0.0
 40
610.0
100
AcDbArc
 50
258.1755262524791
 51
281.8249275139058
  0
LINE
  5
A3A4
330
1F
100
AcDbEntity
  8
本体
 62
     3
370
    -3
100
AcDbLine
 10
5900.954735018578
 20
3316.088850976325
 30
0.0
 11
5669.473745054013
 21
3316.088850976328
 31
0.0
  0
LINE
  5
A3A5
330
1F
100
AcDbEntity
  8
本体
 62
     3
370
    -3
100
AcDbLine
 10
5900.953745054016
 20
3566.088847251023
 30
0.0
 11
5669.473745054013
 21
3566.088847251027
 31
0.0
  0
LINE
  5
A3A6
330
1F
100
AcDbEntity
  8
本体
 62
     3
370
    -3
100
AcDbLine
 10
5913.01846713452
 20
3301.088850976328
 30
0.0
 11
5669.473745054013
 21
3316.088850976328
 31
0.0
  0
LINE
  5
A3A7
330
1F
100
AcDbEntity
  8
本体
 62
     3
370
    -3
100
AcDbLine
 10
5913.018278015108
 20
3581.088122280311
 30
0.0
 11
5669.473745054013
 21
3566.088847251027
 31
0.0
  0
LINE
  5
A3A8
330
1F
100
AcDbEntity
  8
本体
 62
     3
370
    -3
100
AcDbLine
 10
5913.01846713452
 20
3301.088850976328
 30
0.0
 11
5900.954735018578
 21
3316.088850976325
 31
0.0
  0
LINE
  5
A3A9
330
1F
100
AcDbEntity
  8
本体
 62
     3
370
    -3
100
AcDbLine
 10
5913.018278015108
 20
3581.088122280311
 30
0.0
 11
5900.953745054016
 21
3566.088847251023
 31
0.0
  0
ARC
  5
A3AA
330
1F
100
AcDbEntity
  8
本体
 48
2.0
370
    -3
100
AcDbCircle
 10
5303.898965828095
 20
3441.086484859385
 30
0.0
 40
610.0
100
AcDbArc
 50
348.1755262524757
 51
11.82492751386489
  0
DIMENSION
  5
A3AB
330
1F
100
AcDbEntity
  8
寸法線
 62
     7
 48
2.0
370
     9
100
AcDbDimension
  2
*D43
 10
5303.898965828095
 20
3441.087958266857
 30
0.0
 11
5983.545750987927
 21
3791.596811109009
 31
0.0
 70
   164
 71
     5
 42
489.9999999999927
  3
ISO-25
100
AcDbRadialDimension
 15
5739.395295761869
 25
3665.683030817898
 35
0.0
 40
0.0
1001
ACAD
1000
DSTYLE
1002
{
1070
   147
1040
10.0
1070
   140
1040
40.0
1070
   344
1005
71F
1070
   173
1070
     1
1070
    41
1040
40.0
1070
   288
1070
     1
1002
}
  0
DIMENSION
  5
A3AC
330
1F
100
AcDbEntity
  8
寸法線
 62
     7
 48
2.0
370
     9
100
AcDbDimension
  2
*D44
 10
5303.898965828085
 20
3441.086484859377
 30
0.0
 11
5828.083462083895
 21
4007.795570353162
 31
0.0
 70
    36
 71
     5
 42
625.00000000001
  3
ISO-25
100
AcDbRadialDimension
 15
5745.800926805365
 25
3883.067996785438
 35
0.0
 40
0.0
1001
ACAD
1000
DSTYLE
1002
{
1070
   147
1040
10.0
1070
   140
1040
40.0
1070
   344
1005
71F
1070
   173
1070
     1
1070
    41
1040
40.0
1070
   288
1070
     1
1002
}
  0
POINT
  5
B4E3
330
1F
100
AcDbEntity
  8
_0-5_
 62
     7
100
AcDbPoint
 10
-14387.10522590458
 20
20533.36624789132
 30
0.0
  0
POINT
  5
B4F3
330
1F
100
AcDbEntity
  8
_0-5_
 62
     7
100
AcDbPoint
 10
-15681.10522590458
 20
20533.36624789132
 30
0.0
  0
POINT
  5
B5B6
330
1F
100
AcDbEntity
  8
_0-3_
 62
     7
100
AcDbPoint
 10
-11818.09259057829
 20
21572.51566062422
 30
0.0
  0
POINT
  5
B676
330
1F
100
AcDbEntity
  8
_0-5_
 62
     7
100
AcDbPoint
 10
-18096.24305221048
 20
20533.36624789132
 30
0.0
  0
POINT
  5
B686
330
1F
100
AcDbEntity
  8
_0-5_
 62
     7
100
AcDbPoint
 10
-19390.24305221048
 20
20533.36624789132
 30
0.0
  0
ENDSEC
  0
SECTION
  2
OBJECTS
  0
DICTIONARY
  5
C
330
0
100
AcDbDictionary
281
     1
  3
ACAD_2007HEADERVARS_RT
350
1046
  3
ACAD_CIP_PREVIOUS_PRODUCT_INFO
350
1042
  3
ACAD_COLOR
350
6B
  3
ACAD_DETAILVIEWSTYLE
350
103A
  3
ACAD_GROUP
350
D
  3
ACAD_IMAGE_VARS
350
731
  3
ACAD_LAYOUT
350
1A
  3
ACAD_MATERIAL
350
6A
  3
ACAD_MLEADERSTYLE
350
402
  3
ACAD_MLINESTYLE
350
17
  3
ACAD_PLOTSETTINGS
350
19
  3
ACAD_PLOTSTYLENAME
350
E
  3
ACAD_SCALELIST
350
3E0
  3
ACAD_SECTIONVIEWSTYLE
350
1038
  3
ACAD_TABLESTYLE
350
7E
  3
ACAD_VISUALSTYLE
350
F2
  3
ACDB_RECOMPOSE_DATA
350
1045
  3
ACDBHEADERROUNDTRIPXREC
350
EC25
  3
AcDbVariableDictionary
350
5E
  3
ASKSYSVAR
350
6E7
  3
DWGPROPS
350
EC24
  3
SAKAE_DICT
350
EAF
  0
DICTIONARY
  5
104A
330
8
100
AcDbDictionary
280
     1
281
     1
  3
ACAD_XREC_ROUNDTRIP
360
104B
  0
DICTIONARY
  5
688
330
2
100
AcDbDictionary
280
     1
281
     1
  3
ACAD_LAYERFILTERS
360
771
  3
ACAD_LAYERSTATES
360
145E
  3
ACLYDICTIONARY
360
770
  0
DICTIONARY
  5
785
330
10
100
AcDbDictionary
280
     1
281
     1
  3
ADSK_XREC_LAYER_RECONCILED
360
7F6
  0
DICTIONARY
  5
1447
330
1446
100
AcDbDictionary
280
     1
281
     1
  3
ACAD_XREC_ROUNDTRIP
360
1448
  3
ADSK_XREC_LAYER_RECONCILED
360
1449
  0
DICTIONARY
  5
144B
330
144A
100
AcDbDictionary
280
     1
281
     1
  3
ACAD_XREC_ROUNDTRIP
360
144C
  3
ADSK_XREC_LAYER_RECONCILED
360
144D
  0
DICTIONARY
  5
144F
330
144E
100
AcDbDictionary
280
     1
281
     1
  3
ACAD_XREC_ROUNDTRIP
360
1450
  3
ADSK_XREC_LAYER_RECONCILED
360
1451
  0
DICTIONARY
  5
1453
330
1452
100
AcDbDictionary
280
     1
281
     1
  3
ACAD_XREC_ROUNDTRIP
360
1454
  3
ADSK_XREC_LAYER_RECONCILED
360
1455
  0
DICTIONARY
  5
318
330
1F
100
AcDbDictionary
280
     1
281
     1
  3
ACAD_SORTENTS
360
35D2
  0
DICTIONARY
  5
10A2
330
10A1
100
AcDbDictionary
280
     1
281
     1
  3
ACAD_SORTENTS
360
98AF
  0
DICTIONARY
  5
1046
102
{ACAD_REACTORS
330
C
102
}
330
C
100
AcDbDictionary
281
     1
  3
DIMFXL
350
1047
  3
DIMJOGANG
350
1048
  3
INTERFEREVPVS
350
1049
  0
XRECORD
  5
1042
102
{ACAD_REACTORS
330
C
102
}
330
C
100
AcDbXrecord
280
     1
300
ACDLT
300
2019
300

  0
DICTIONARY
  5
6B
102
{ACAD_REACTORS
330
C
102
}
330
C
100
AcDbDictionary
281
     1
  0
DICTIONARY
  5
103A
102
{ACAD_REACTORS
330
C
102
}
330
C
100
AcDbDictionary
281
     1
  3
Metric50
350
103B
  0
DICTIONARY
  5
D
102
{ACAD_REACTORS
330
C
102
}
330
C
100
AcDbDictionary
281
     1
  0
RASTERVARIABLES
  5
731
102
{ACAD_REACTORS
330
C
102
}
330
C
100
AcDbRasterVariables
 90
        0
 70
     3
 71
     1
 72
     1
  0
DICTIONARY
  5
1A
102
{ACAD_REACTORS
330
C
102
}
330
C
100
AcDbDictionary
281
     1
  3
Model
350
22
  3
レイアウト1
350
D3
  3
レイアウト2
350
D7
  0
DICTIONARY
  5
6A
102
{ACAD_REACTORS
330
C
102
}
330
C
100
AcDbDictionary
281
     1
  3
ByBlock
350
F0
  3
ByLayer
350
EF
  3
Global
350
F1
  0
DICTIONARY
  5
402
102
{ACAD_REACTORS
330
C
102
}
330
C
100
AcDbDictionary
281
     1
  3
Standard
350
403
  0
DICTIONARY
  5
17
102
{ACAD_REACTORS
330
C
102
}
330
C
100
AcDbDictionary
281
     1
  3
Standard
350
18
  0
DICTIONARY
  5
19
102
{ACAD_REACTORS
330
C
102
}
330
C
100
AcDbDictionary
281
     1
  0
ACDBDICTIONARYWDFLT
  5
E
102
{ACAD_REACTORS
330
C
102
}
330
C
100
AcDbDictionary
281
     1
  3
Normal
350
F
100
AcDbDictionaryWithDefault
340
F
  0
DICTIONARY
  5
3E0
102
{ACAD_REACTORS
330
C
102
}
330
C
100
AcDbDictionary
281
     1
  3
A0
350
3E1
  3
A1
350
3E2
  3
A2
350
3E3
  3
A3
350
3E4
  3
A4
350
3E5
  3
A5
350
3E6
  3
A6
350
3E7
  3
A7
350
3E8
  3
A8
350
3E9
  3
A9
350
3EA
  3
B0
350
3EB
  3
B1
350
3EC
  3
B2
350
3ED
  3
B3
350
3EE
  3
B4
350
3EF
  3
B5
350
3F0
  3
B6
350
3F1
  3
B7
350
3F2
  3
B8
350
3F3
  3
B9
350
3F4
  3
C0
350
3F5
  3
C1
350
3F6
  3
C2
350
3F7
  3
C3
350
3F8
  3
C4
350
3F9
  3
C5
350
3FA
  3
C6
350
3FB
  3
C7
350
3FC
  3
C8
350
3FD
  3
C9
350
3FE
  3
D0
350
3FF
  3
D1
350
400
  3
D2
350
401
  0
DICTIONARY
  5
1038
102
{ACAD_REACTORS
330
C
102
}
330
C
100
AcDbDictionary
281
     1
  3
Metric50
350
1039
  0
DICTIONARY
  5
7E
102
{ACAD_REACTORS
330
C
102
}
330
C
100
AcDbDictionary
281
     1
  3
Standard
350
7F
  0
DICTIONARY
  5
F2
102
{ACAD_REACTORS
330
C
102
}
330
C
100
AcDbDictionary
281
     1
  3
2dWireframe
350
F8
  3
3D Hidden
350
FA
  3
3dWireframe
350
F9
  3
Basic
350
F7
  3
Brighten
350
FE
  3
ColorChange
350
102
  3
Conceptual
350
FB
  3
Dim
350
FD
  3
EdgeColorOff
350
1037
  3
Facepattern
350
101
  3
Flat
350
F3
  3
FlatWithEdges
350
F4
  3
Gouraud
350
F5
  3
GouraudWithEdges
350
F6
  3
Hidden
350
102F
  3
JitterOff
350
1035
  3
Linepattern
350
100
  3
OverhangOff
350
1036
  3
Realistic
350
FC
  3
Shaded
350
1034
  3
Shaded with edges
350
1033
  3
Shades of Gray
350
1030
  3
Sketchy
350
1031
  3
Thicken
350
FF
  3
Wireframe
350
102E
  3
X-Ray
350
1032
  0
XRECORD
  5
1045
102
{ACAD_REACTORS
330
C
102
}
330
C
100
AcDbXrecord
280
     1
 90
        1
330
7F
  0
DICTIONARY
  5
EC25
102
{ACAD_REACTORS
330
C
102
}
330
C
100
AcDbDictionary
281
     1
  0
DICTIONARY
  5
5E
102
{ACAD_REACTORS
330
C
102
}
330
C
100
AcDbDictionary
281
     1
  3
CANNOSCALE
350
678
  3
CMLEADERSTYLE
350
676
  3
CTABLESTYLE
350
84
  3
CVIEWDETAILSTYLE
350
1095
  3
CVIEWSECTIONSTYLE
350
1096
  3
DIMASSOC
350
5F
  3
HIDETEXT
350
63
  3
LAYEREVAL
350
102B
  3
LAYERNOTIFY
350
102C
  3
LIGHTINGUNITS
350
679
  3
MSLTSCALE
350
677
  3
PROJECTNAME
350
EC22
  3
PSOLHEIGHT
350
1099
  3
PSOLWIDTH
350
1098
  3
SOLIDHIST
350
1097
  0
DICTIONARY
  5
6E7
102
{ACAD_REACTORS
330
C
102
}
330
C
100
AcDbDictionary
281
     1
  3
ASK_SUMMARY
350
6E8
  3
ASKCURSC
350
7D3
  0
XRECORD
  5
EC24
102
{ACAD_REACTORS
330
C
102
}
330
C
100
AcDbXrecord
280
     1
  1
DWGPROPS COOKIE
  2

  3

  4

  6

  7

  8
shayashi
  9

300
=
301
=
302
=
303
=
304
=
305
=
306
=
307
=
308
=
309
=
 40
3.318094872685185
 41
2454497.602825139
 42
2460991.669465833
  1

 90
        0
  0
DICTIONARY
  5
EAF
102
{ACAD_REACTORS
330
C
102
}
330
C
100
AcDbDictionary
281
     1
  3
XREC1
350
EB0
  0
XRECORD
  5
104B
102
{ACAD_REACTORS
330
104A
102
}
330
104A
100
AcDbXrecord
280
     1
102
VTR_0.000_0.000_1.000_1.000_VISUALSTYLE
340
F8
102
VTR_0.000_0.000_1.000_1.000_GRIDDISPLAY
 70
     2
102
VTR_0.000_0.000_1.000_1.000_GRIDMAJOR
 70
     5
102
VTR_0.000_0.000_1.000_1.000_DEFAULTLIGHTING
280
     1
102
VTR_0.000_0.000_1.000_1.000_DEFAULTLIGHTINGTYPE
 70
     1
102
VTR_0.000_0.000_1.000_1.000_BRIGHTNESS
141
0.0
102
VTR_0.000_0.000_1.000_1.000_CONTRAST
142
0.0
  0
DICTIONARY
  5
771
102
{ACAD_REACTORS
330
688
102
}
330
688
100
AcDbDictionary
281
     1
  0
DICTIONARY
  5
145E
102
{ACAD_REACTORS
330
688
102
}
330
688
100
AcDbDictionary
281
     1
  0
DICTIONARY
  5
770
102
{ACAD_REACTORS
330
688
102
}
330
688
100
AcDbDictionary
281
     1
1001
ACAD
1000
<All
  0
XRECORD
  5
7F6
102
{ACAD_REACTORS
330
785
102
}
330
785
100
AcDbXrecord
280
     1
290
     1
  0
XRECORD
  5
1448
102
{ACAD_REACTORS
330
1447
102
}
330
1447
100
AcDbXrecord
280
     1
102
MATERIAL
340
F1
  0
XRECORD
  5
1449
102
{ACAD_REACTORS
330
1447
102
}
330
1447
100
AcDbXrecord
280
     1
290
     1
  0
XRECORD
  5
144C
102
{ACAD_REACTORS
330
144B
102
}
330
144B
100
AcDbXrecord
280
     1
102
MATERIAL
340
F1
  0
XRECORD
  5
144D
102
{ACAD_REACTORS
330
144B
102
}
330
144B
100
AcDbXrecord
280
     1
290
     1
  0
XRECORD
  5
1450
102
{ACAD_REACTORS
330
144F
102
}
330
144F
100
AcDbXrecord
280
     1
102
MATERIAL
340
F1
  0
XRECORD
  5
1451
102
{ACAD_REACTORS
330
144F
102
}
330
144F
100
AcDbXrecord
280
     1
290
     1
  0
XRECORD
  5
1454
102
{ACAD_REACTORS
330
1453
102
}
330
1453
100
AcDbXrecord
280
     1
102
MATERIAL
340
F1
  0
XRECORD
  5
1455
102
{ACAD_REACTORS
330
1453
102
}
330
1453
100
AcDbXrecord
280
     1
290
     1
  0
SORTENTSTABLE
  5
35D2
102
{ACAD_REACTORS
330
318
102
}
330
318
100
AcDbSortentsTable
330
1F
331
9B8
  5
9BF
331
9C0
  5
9C7
331
8D1
  5
8D8
331
9C8
  5
A1C
331
9D50
  5
9D5F
331
A21D
  5
A394
331
9D97
  5
9DA6
331
9D58
  5
9D67
331
A1DE
  5
A1ED
331
A39A
  5
A3A9
331
A3A2
  5
A450
331
9D9F
  5
9DAE
331
9D60
  5
9D6F
331
A1E6
  5
A1F5
331
9DA7
  5
9DB6
331
9D68
  5
9D77
331
A1EE
  5
A1FD
331
A3AA
  5
A458
331
A1F6
  5
A205
331
8D9
  5
8E0
331
D9F
  5
18F1
331
8E1
  5
8E8
331
9D70
  5
9D7F
331
B98
  5
B9F
331
A1FE
  5
A20D
331
9D78
  5
9D87
331
9DAF
  5
A1DC
331
A206
  5
A215
331
9D80
  5
9D8F
331
9DB7
  5
A1E4
331
9D88
  5
9D97
331
9D49
  5
9D58
331
A20E
  5
A21D
331
A38B
  5
A39A
331
A393
  5
A3A2
331
A216
  5
A38D
331
BA0
  5
18EE
331
9B9
  5
9C0
331
9C1
  5
9C8
331
9C9
  5
A1D
331
8D2
  5
8D9
331
9D90
  5
9D9F
331
9D51
  5
9D60
331
9D98
  5
9DA7
331
9D59
  5
9D68
331
A1DF
  5
A1EE
331
A39B
  5
A3AA
331
9DA0
  5
9DAF
331
A1E7
  5
A1F6
331
9D61
  5
9D70
331
A3A3
  5
A451
331
9D69
  5
9D78
331
A1EF
  5
A1FE
331
A3AB
  5
A459
331
A1F7
  5
A206
331
8DA
  5
8E1
331
8E2
  5
9B4
331
9D71
  5
9D80
331
9DA8
  5
9DB7
331
B99
  5
BA0
331
A1FF
  5
A20E
331
9D79
  5
9D88
331
9DB0
  5
A1DD
331
A207
  5
A216
331
9D81
  5
9D90
331
9DB8
  5
A1E5
331
9D89
  5
9D98
331
9D4A
  5
9D59
331
A20F
  5
A386
331
A38C
  5
A39B
331
A217
  5
A38E
331
A394
  5
A3A3
331
BA1
  5
18EF
331
9BA
  5
9C1
331
9C2
  5
9C9
331
9CA
  5
A1E
331
8D3
  5
8DA
331
9D91
  5
9DA0
331
9D52
  5
9D61
331
A39C
  5
A3AB
331
9D99
  5
9DA8
331
9D5A
  5
9D69
331
A1E0
  5
A1EF
331
9DA1
  5
9DB0
331
A1E8
  5
A1F7
331
9D62
  5
9D71
331
A3A4
  5
A452
331
A1F0
  5
A1FF
331
9D6A
  5
9D79
331
A3AC
  5
A45A
331
8DB
  5
8E2
331
8E3
  5
9B5
331
A1F8
  5
A207
331
9D72
  5
9D81
331
9DA9
  5
9DB8
331
B9A
  5
BA1
331
B4E3
  5
B4E5
331
A200
  5
A20F
331
9D7A
  5
9D89
331
9DB1
  5
A1DE
331
B4F3
  5
B4F5
331
A208
  5
A217
331
9D82
  5
9D91
331
9DB9
  5
A1E6
331
A210
  5
A387
331
9D8A
  5
9D99
331
9D4B
  5
9D5A
331
9DE9
  5
A1E8
331
A38D
  5
A39C
331
A395
  5
A3A4
331
9BB
  5
9C2
331
9C3
  5
9CA
331
9CB
  5
B98
331
8D4
  5
8DB
331
A218
  5
A38F
331
9D92
  5
9DA1
331
9D53
  5
9D62
331
9D9A
  5
9DA9
331
9D5B
  5
9D6A
331
A1E1
  5
A1F0
331
A39D
  5
A3AC
331
9DA2
  5
9DB1
331
A1E9
  5
A1F8
331
9D63
  5
9D72
331
A3A5
  5
A453
331
A1F1
  5
A200
331
9D6B
  5
9D7A
331
8DC
  5
8E3
331
8E4
  5
9B6
331
A1F9
  5
A208
331
9D73
  5
9D82
331
9DAA
  5
9DB9
331
B9B
  5
D9E
331
9B4
  5
9BB
331
A201
  5
A210
331
9D7B
  5
9D8A
331
9DB2
  5
A1DF
331
A386
  5
A395
331
A209
  5
A218
331
9D83
  5
9D92
331
9D44
  5
9D53
331
9DBA
  5
A1E7
331
9D8B
  5
9D9A
331
9D4C
  5
9D5B
331
A211
  5
A388
331
A38E
  5
A39D
331
A396
  5
A3A5
331
9BC
  5
9C3
331
9C4
  5
9CB
331
9CC
  5
B99
331
8D5
  5
8DC
331
A219
  5
A390
331
9D93
  5
9DA2
331
9D54
  5
9D63
331
A1DA
  5
A1E9
331
A1C
  5
B9C
331
9D9B
  5
9DAA
331
9D5C
  5
9D6B
331
A1E2
  5
A1F1
331
A39E
  5
A3F5
331
A3A6
  5
A454
331
9DA3
  5
9DB2
331
A1EA
  5
A1F9
331
9D64
  5
9D73
331
A1F2
  5
A201
331
9D6C
  5
9D7B
331
8DD
  5
8E4
331
8E5
  5
9B7
331
A1FA
  5
A209
331
9D74
  5
9D83
331
9DAB
  5
9DBA
331
B9C
  5
D9F
331
9B5
  5
9BC
331
9DB3
  5
A1E0
331
9D7C
  5
9D8B
331
A202
  5
A211
331
A20A
  5
A219
331
9D84
  5
9D93
331
9D45
  5
9D54
331
A387
  5
A396
331
A212
  5
A389
331
9D8C
  5
9D9B
331
9D4D
  5
9D5C
331
A38F
  5
A39E
331
A397
  5
A3A6
331
9BD
  5
9C4
331
9C5
  5
9CC
331
9CD
  5
B9A
331
8D6
  5
8DD
331
A21A
  5
A391
331
9D94
  5
9DA3
331
9D55
  5
9D64
331
A1DB
  5
A1EA
331
A1D
  5
B9D
331
A39F
  5
A44D
331
9D9C
  5
9DAB
331
9D5D
  5
9D6C
331
A1E3
  5
A1F2
331
9DA4
  5
9DB3
331
A1EB
  5
A1FA
331
9D65
  5
9D74
331
A3A7
  5
A455
331
A1F3
  5
A202
331
9D6D
  5
9D7C
331
8DE
  5
8E5
331
8E6
  5
9B8
331
A1FB
  5
A20A
331
9D75
  5
9D84
331
9DAC
  5
9DE9
331
B9D
  5
18EB
331
9B6
  5
9BD
331
A203
  5
A212
331
9D7D
  5
9D8C
331
9DB4
  5
A1E1
331
A20B
  5
A21A
331
9D85
  5
9D94
331
9D46
  5
9D55
331
A388
  5
A397
331
B5B6
  5
B5B8
331
A390
  5
A39F
331
A213
  5
A38A
331
9D8D
  5
9D9C
331
9D4E
  5
9D5D
331
B676
  5
B678
331
9BE
  5
9C5
331
9C6
  5
9CD
331
9CE
  5
B9B
331
8D7
  5
8DE
331
A398
  5
A3A7
331
A21B
  5
A392
331
9D56
  5
9D65
331
9D95
  5
9DA4
331
A1DC
  5
A1EB
331
A1E
  5
B9E
331
B686
  5
B688
331
9D9D
  5
9DAC
331
9D5E
  5
9D6D
331
A1E4
  5
A1F3
331
A3A0
  5
A44E
331
9DA5
  5
9DB4
331
A1EC
  5
A1FB
331
9D66
  5
9D75
331
A3A8
  5
A456
331
A1F4
  5
A203
331
9D6E
  5
9D7D
331
8DF
  5
8E6
331
8E7
  5
9B9
331
A1FC
  5
A20B
331
9D76
  5
9D85
331
9DAD
  5
A1DA
331
B9E
  5
18EC
331
9B7
  5
9BE
331
A204
  5
A213
331
9D7E
  5
9D8D
331
9DB5
  5
A1E2
331
A389
  5
A398
331
A20C
  5
A21B
331
9D86
  5
9D95
331
9D47
  5
9D56
331
A214
  5
A38B
331
9D8E
  5
9D9D
331
9D4F
  5
9D5E
331
A391
  5
A3A0
331
9BF
  5
9C6
331
9C7
  5
9CE
331
A399
  5
A3A8
331
A21C
  5
A393
331
9D96
  5
9DA5
331
9D57
  5
9D66
331
A1DD
  5
A1EC
331
9D9E
  5
9DAD
331
9D5F
  5
9D6E
331
A1E5
  5
A1F4
331
A3A1
  5
A44F
331
A3A9
  5
A457
331
9DA6
  5
9DB5
331
A1ED
  5
A1FC
331
9D67
  5
9D76
331
9D6F
  5
9D7E
331
A1F5
  5
A204
331
8D8
  5
8DF
331
D9E
  5
18F0
331
8E0
  5
8E7
331
8E8
  5
9BA
331
A1FD
  5
A20C
331
9D77
  5
9D86
331
9DAE
  5
A1DB
331
B9F
  5
18ED
331
A205
  5
A214
331
9D7F
  5
9D8E
331
9DB6
  5
A1E3
331
A20D
  5
A21C
331
9D87
  5
9D96
331
A38A
  5
A399
331
9D48
  5
9D57
331
A392
  5
A3A1
331
A215
  5
A38C
331
9D8F
  5
9D9E
  0
SORTENTSTABLE
  5
98AF
102
{ACAD_REACTORS
330
10A2
102
}
330
10A2
100
AcDbSortentsTable
330
10A1
  0
XRECORD
  5
1047
102
{ACAD_REACTORS
330
1046
102
}
330
1046
100
AcDbXrecord
280
     1
 40
2.0
  0
XRECORD
  5
1048
102
{ACAD_REACTORS
330
1046
102
}
330
1046
100
AcDbXrecord
280
     1
 40
1.570796326794896
  0
XRECORD
  5
1049
102
{ACAD_REACTORS
330
1046
102
}
330
1046
100
AcDbXrecord
280
     1
340
F9
  0
ACAD_PROXY_OBJECT
  5
103B
102
{ACAD_XDICTIONARY
360
1093
102
}
102
{ACAD_REACTORS
330
103A
102
}
330
103A
100
AcDbProxyObject
 90
      499
 91
      514
 95
  2555929
 70
     0
 93
     1145
310
9094D6574726963353000481C000000600000000000000002881403000000180000000000000000A2023300000018001000000180000000000000000A20400000000000017202029C129E2E20B1AB30B9102B34B2BBA232BA30B4B624B21F129014129E2E20B1AB30B9102B34B2BBA9B1B0B632902E33101112B9B7111F129
310
480233000000180008CC00000060000000
340
11
340
0
340
16
340
11
340
16
340
16
 94
        0
1001
ACAD
1000
AcRTDxfName
1000
ACDBDETAILVIEWSTYLE
  0
LAYOUT
  5
22
102
{ACAD_XDICTIONARY
360
EC26
102
}
102
{ACAD_REACTORS
330
1A
102
}
330
1A
100
AcDbPlotSettings
  1
DocuCom PDF Driver.pc3
  2
DocuCom PDF Driver.pc3
  4
A3
  6

 40
3.174999952316282
 41
3.174999952316282
 42
3.17498779296875
 43
3.17498779296875
 44
296.9683227539062
 45
419.9889831542968
 46
-3.186937253815783
 47
-3.174993872642517
 48
0.0
 49
0.0
140
2099.999968707901
141
1484.999977872015
142
1.0
143
5.000131081858391
 70
 11940
 72
     1
 73
     1
 74
     4
  7
monochrome.ctb
 75
     0
147
0.2000000029802
148
0.0
149
0.0
100
AcDbLayout
  1
Model
 70
     1
 71
     0
 10
0.0
 20
0.0
 11
12.0
 21
9.0
 12
0.0
 22
0.0
 32
0.0
 14
0.0
 24
0.0
 34
0.0
 15
0.0
 25
0.0
 35
0.0
146
0.0
 13
0.0
 23
0.0
 33
0.0
 16
1.0
 26
0.0
 36
0.0
 17
0.0
 27
1.0
 37
0.0
 76
     0
330
1F
1001
ACAD_PSEXT
1000
DocuCom PDF Driver.pc3
1000
DocuCom PDF Driver
1000
DocuCom PDF Port:
1000

1070
     0
  0
LAYOUT
  5
D3
102
{ACAD_XDICTIONARY
360
EC28
102
}
102
{ACAD_REACTORS
330
1A
102
}
330
1A
100
AcDbPlotSettings
  1

  2
C:\Documents and Settings\basas\Application Data\Autodesk\AutoCAD 2005\R16.1\enu\plotters\Default Windows System Printer.pc3
  4

  6

 40
0.0
 41
0.0
 42
0.0
 43
0.0
 44
0.0
 45
0.0
 46
0.0
 47
0.0
 48
0.0
 49
0.0
140
0.0
141
0.0
142
1.0
143
1.0
 70
   688
 72
     0
 73
     0
 74
     5
  7
C:\Documents and Settings\tomiya\Application Data\Autodesk\AutoCAD Mechanical 2008\R17.1\jpn\Plot Styles\SUIKO.ctb
 75
    16
147
1.0
148
0.0
149
0.0
100
AcDbLayout
  1
レイアウト1
 70
     1
 71
     1
 10
0.0
 20
0.0
 11
12.0
 21
9.0
 12
0.0
 22
0.0
 32
0.0
 14
0.0
 24
0.0
 34
0.0
 15
0.0
 25
0.0
 35
0.0
146
0.0
 13
0.0
 23
0.0
 33
0.0
 16
1.0
 26
0.0
 36
0.0
 17
0.0
 27
1.0
 37
0.0
 76
     0
330
D2
  0
LAYOUT
  5
D7
102
{ACAD_XDICTIONARY
360
EC2A
102
}
102
{ACAD_REACTORS
330
1A
102
}
330
1A
100
AcDbPlotSettings
  1

  2
C:\Documents and Settings\basas\Application Data\Autodesk\AutoCAD 2005\R16.1\enu\plotters\Default Windows System Printer.pc3
  4

  6

 40
0.0
 41
0.0
 42
0.0
 43
0.0
 44
0.0
 45
0.0
 46
0.0
 47
0.0
 48
0.0
 49
0.0
140
0.0
141
0.0
142
1.0
143
1.0
 70
   688
 72
     0
 73
     0
 74
     5
  7
C:\Documents and Settings\tomiya\Application Data\Autodesk\AutoCAD Mechanical 2008\R17.1\jpn\Plot Styles\SUIKO.ctb
 75
    16
147
1.0
148
0.0
149
0.0
100
AcDbLayout
  1
レイアウト2
 70
     1
 71
     2
 10
0.0
 20
0.0
 11
12.0
 21
9.0
 12
0.0
 22
0.0
 32
0.0
 14
0.0
 24
0.0
 34
0.0
 15
0.0
 25
0.0
 35
0.0
146
0.0
 13
0.0
 23
0.0
 33
0.0
 16
1.0
 26
0.0
 36
0.0
 17
0.0
 27
1.0
 37
0.0
 76
     0
330
D6
  0
MATERIAL
  5
F0
102
{ACAD_XDICTIONARY
360
104F
102
}
102
{ACAD_REACTORS
330
6A
102
}
330
6A
100
AcDbMaterial
  1
ByBlock
  0
MATERIAL
  5
EF
102
{ACAD_XDICTIONARY
360
104D
102
}
102
{ACAD_REACTORS
330
6A
102
}
330
6A
100
AcDbMaterial
  1
ByLayer
  0
MATERIAL
  5
F1
102
{ACAD_XDICTIONARY
360
1051
102
}
102
{ACAD_REACTORS
330
6A
102
}
330
6A
100
AcDbMaterial
  1
Global
  0
ACAD_PROXY_OBJECT
  5
403
102
{ACAD_REACTORS
330
402
102
}
330
402
100
AcDbProxyObject
 90
      499
 91
      507
 95
  2555929
 70
     0
 93
      744
310
40901902A40600000030400FEFFFFFF8000000000000008102B5E8DC0F42B5CFD095374616E646172640000000000000004102405064068000000C1000000000000000410000000000000004102000000304015D90000000000000C03F00
340
14
340
0
340
11
340
0
 94
        0
1001
ACAD_MLEADERVER
1070
     2
1001
ACAD
1000
AcRTDxfName
1000
MLEADERSTYLE
  0
MLINESTYLE
  5
18
102
{ACAD_REACTORS
330
17
102
}
330
17
100
AcDbMlineStyle
  2
STANDARD
 70
     0
  3

 62
   256
 51
90.0
 52
90.0
 71
     2
 49
0.5
 62
   256
  6
BYLAYER
 49
-0.5
 62
   256
  6
BYLAYER
  0
ACDBPLACEHOLDER
  5
F
102
{ACAD_REACTORS
330
E
102
}
330
E
  0
ACAD_PROXY_OBJECT
  5
3E1
102
{ACAD_REACTORS
330
3E0
102
}
330
3E0
100
AcDbProxyObject
 90
      499
 91
      506
 95
  2555929
 70
     0
 93
       49
310
904313A3100598
 94
        0
1001
ACAD
1000
AcRTDxfName
1000
SCALE
  0
ACAD_PROXY_OBJECT
  5
3E2
102
{ACAD_REACTORS
330
3E0
102
}
330
3E0
100
AcDbProxyObject
 90
      499
 91
      506
 95
  2555929
 70
     0
 93
      113
310
904313A32004000000000000004074
 94
        0
1001
ACAD
1000
AcRTDxfName
1000
SCALE
  0
ACAD_PROXY_OBJECT
  5
3E3
102
{ACAD_REACTORS
330
3E0
102
}
330
3E0
100
AcDbProxyObject
 90
      499
 91
      506
 95
  2555929
 70
     0
 93
      113
310
904313A34004000000000000104000
 94
        0
1001
ACAD
1000
AcRTDxfName
1000
SCALE
  0
ACAD_PROXY_OBJECT
  5
3E4
102
{ACAD_REACTORS
330
3E0
102
}
330
3E0
100
AcDbProxyObject
 90
      499
 91
      506
 95
  2555929
 70
     0
 93
      113
310
904313A35004000000000000144074
 94
        0
1001
ACAD
1000
AcRTDxfName
1000
SCALE
  0
ACAD_PROXY_OBJECT
  5
3E5
102
{ACAD_REACTORS
330
3E0
102
}
330
3E0
100
AcDbProxyObject
 90
      499
 91
      506
 95
  2555929
 70
     0
 93
      113
310
904313A38004000000000000204000
 94
        0
1001
ACAD
1000
AcRTDxfName
1000
SCALE
  0
ACAD_PROXY_OBJECT
  5
3E6
102
{ACAD_REACTORS
330
3E0
102
}
330
3E0
100
AcDbProxyObject
 90
      499
 91
      506
 95
  2555929
 70
     0
 93
      121
310
905313A3130004000000000000244009
 94
        0
1001
ACAD
1000
AcRTDxfName
1000
SCALE
  0
ACAD_PROXY_OBJECT
  5
3E7
102
{ACAD_REACTORS
330
3E0
102
}
330
3E0
100
AcDbProxyObject
 90
      499
 91
      506
 95
  2555929
 70
     0
 93
      121
310
905313A3136004000000000000304000
 94
        0
1001
ACAD
1000
AcRTDxfName
1000
SCALE
  0
ACAD_PROXY_OBJECT
  5
3E8
102
{ACAD_REACTORS
330
3E0
102
}
330
3E0
100
AcDbProxyObject
 90
      499
 91
      506
 95
  2555929
 70
     0
 93
      121
310
905313A3230004000000000000344009
 94
        0
1001
ACAD
1000
AcRTDxfName
1000
SCALE
  0
ACAD_PROXY_OBJECT
  5
3E9
102
{ACAD_REACTORS
330
3E0
102
}
330
3E0
100
AcDbProxyObject
 90
      499
 91
      506
 95
  2555929
 70
     0
 93
      121
310
905313A33300040000000000003E4000
 94
        0
1001
ACAD
1000
AcRTDxfName
1000
SCALE
  0
ACAD_PROXY_OBJECT
  5
3EA
102
{ACAD_REACTORS
330
3E0
102
}
330
3E0
100
AcDbProxyObject
 90
      499
 91
      506
 95
  2555929
 70
     0
 93
      121
310
905313A3430004000000000000444009
 94
        0
1001
ACAD
1000
AcRTDxfName
1000
SCALE
  0
ACAD_PROXY_OBJECT
  5
3EB
102
{ACAD_REACTORS
330
3E0
102
}
330
3E0
100
AcDbProxyObject
 90
      499
 91
      506
 95
  2555929
 70
     0
 93
      121
310
905313A3530004000000000000494000
 94
        0
1001
ACAD
1000
AcRTDxfName
1000
SCALE
  0
ACAD_PROXY_OBJECT
  5
3EC
102
{ACAD_REACTORS
330
3E0
102
}
330
3E0
100
AcDbProxyObject
 90
      499
 91
      506
 95
  2555929
 70
     0
 93
      129
310
906313A313030004000000000000594002
 94
        0
1001
ACAD
1000
AcRTDxfName
1000
SCALE
  0
ACAD_PROXY_OBJECT
  5
3ED
102
{ACAD_REACTORS
330
3E0
102
}
330
3E0
100
AcDbProxyObject
 90
      499
 91
      506
 95
  2555929
 70
     0
 93
      113
310
904323A31000000000000000010140
 94
        0
1001
ACAD
1000
AcRTDxfName
1000
SCALE
  0
ACAD_PROXY_OBJECT
  5
3EE
102
{ACAD_REACTORS
330
3E0
102
}
330
3E0
100
AcDbProxyObject
 90
      499
 91
      506
 95
  2555929
 70
     0
 93
      113
310
904343A31000000000000000410159
 94
        0
1001
ACAD
1000
AcRTDxfName
1000
SCALE
  0
ACAD_PROXY_OBJECT
  5
3EF
102
{ACAD_REACTORS
330
3E0
102
}
330
3E0
100
AcDbProxyObject
 90
      499
 91
      506
 95
  2555929
 70
     0
 93
      113
310
904383A31000000000000000810140
 94
        0
1001
ACAD
1000
AcRTDxfName
1000
SCALE
  0
ACAD_PROXY_OBJECT
  5
3F0
102
{ACAD_REACTORS
330
3E0
102
}
330
3E0
100
AcDbProxyObject
 90
      499
 91
      506
 95
  2555929
 70
     0
 93
      121
310
90531303A31000000000000000910140
 94
        0
1001
ACAD
1000
AcRTDxfName
1000
SCALE
  0
ACAD_PROXY_OBJECT
  5
3F1
102
{ACAD_REACTORS
330
3E0
102
}
330
3E0
100
AcDbProxyObject
 90
      499
 91
      506
 95
  2555929
 70
     0
 93
      129
310
9063130303A31000000000000001650100
 94
        0
1001
ACAD
1000
AcRTDxfName
1000
SCALE
  0
ACAD_PROXY_OBJECT
  5
3F2
102
{ACAD_REACTORS
330
3E0
102
}
330
3E0
100
AcDbProxyObject
 90
      499
 91
      506
 95
  2555929
 70
     0
 93
      265
310
90F312F31323822203D2031272D302200000000000000200FC00000000000028407B
 94
        0
1001
ACAD
1000
AcRTDxfName
1000
SCALE
  0
ACAD_PROXY_OBJECT
  5
3F3
102
{ACAD_REACTORS
330
3E0
102
}
330
3E0
100
AcDbProxyObject
 90
      499
 91
      506
 95
  2555929
 70
     0
 93
      257
310
90E312F363422203D2031272D302200000000000000240FC000000000000284000
 94
        0
1001
ACAD
1000
AcRTDxfName
1000
SCALE
  0
ACAD_PROXY_OBJECT
  5
3F4
102
{ACAD_REACTORS
330
3E0
102
}
330
3E0
100
AcDbProxyObject
 90
      499
 91
      506
 95
  2555929
 70
     0
 93
      257
310
90E312F333222203D2031272D302200000000000000280FC000000000000284040
 94
        0
1001
ACAD
1000
AcRTDxfName
1000
SCALE
  0
ACAD_PROXY_OBJECT
  5
3F5
102
{ACAD_REACTORS
330
3E0
102
}
330
3E0
100
AcDbProxyObject
 90
      499
 91
      506
 95
  2555929
 70
     0
 93
      257
310
90E312F313622203D2031272D3022000000000000002C0FC000000000000284000
 94
        0
1001
ACAD
1000
AcRTDxfName
1000
SCALE
  0
ACAD_PROXY_OBJECT
  5
3F6
102
{ACAD_REACTORS
330
3E0
102
}
330
3E0
100
AcDbProxyObject
 90
      499
 91
      506
 95
  2555929
 70
     0
 93
      257
310
90E332F333222203D2031272D3022000000000000002E0FC000000000000284040
 94
        0
1001
ACAD
1000
AcRTDxfName
1000
SCALE
  0
ACAD_PROXY_OBJECT
  5
3F7
102
{ACAD_REACTORS
330
3E0
102
}
330
3E0
100
AcDbProxyObject
 90
      499
 91
      506
 95
  2555929
 70
     0
 93
      249
310
90D312F3822203D2031272D302200000000000000300FC000000000000284040
 94
        0
1001
ACAD
1000
AcRTDxfName
1000
SCALE
  0
ACAD_PROXY_OBJECT
  5
3F8
102
{ACAD_REACTORS
330
3E0
102
}
330
3E0
100
AcDbProxyObject
 90
      499
 91
      506
 95
  2555929
 70
     0
 93
      257
310
90E332F313622203D2031272D302200000000000000320FC000000000000284040
 94
        0
1001
ACAD
1000
AcRTDxfName
1000
SCALE
  0
ACAD_PROXY_OBJECT
  5
3F9
102
{ACAD_REACTORS
330
3E0
102
}
330
3E0
100
AcDbProxyObject
 90
      499
 91
      506
 95
  2555929
 70
     0
 93
      249
310
90D312F3422203D2031272D302200000000000000340FC000000000000284040
 94
        0
1001
ACAD
1000
AcRTDxfName
1000
SCALE
  0
ACAD_PROXY_OBJECT
  5
3FA
102
{ACAD_REACTORS
330
3E0
102
}
330
3E0
100
AcDbProxyObject
 90
      499
 91
      506
 95
  2555929
 70
     0
 93
      249
310
90D332F3822203D2031272D302200000000000000360FC000000000000284040
 94
        0
1001
ACAD
1000
AcRTDxfName
1000
SCALE
  0
ACAD_PROXY_OBJECT
  5
3FB
102
{ACAD_REACTORS
330
3E0
102
}
330
3E0
100
AcDbProxyObject
 90
      499
 91
      506
 95
  2555929
 70
     0
 93
      249
310
90D312F3222203D2031272D302200000000000000380FC000000000000284040
 94
        0
1001
ACAD
1000
AcRTDxfName
1000
SCALE
  0
ACAD_PROXY_OBJECT
  5
3FC
102
{ACAD_REACTORS
330
3E0
102
}
330
3E0
100
AcDbProxyObject
 90
      499
 91
      506
 95
  2555929
 70
     0
 93
      249
310
90D332F3422203D2031272D3022000000000000003A0FC000000000000284040
 94
        0
1001
ACAD
1000
AcRTDxfName
1000
SCALE
  0
ACAD_PROXY_OBJECT
  5
3FD
102
{ACAD_REACTORS
330
3E0
102
}
330
3E0
100
AcDbProxyObject
 90
      499
 91
      506
 95
  2555929
 70
     0
 93
      169
310
90B3122203D2031272D3022004000000000000284000
 94
        0
1001
ACAD
1000
AcRTDxfName
1000
SCALE
  0
ACAD_PROXY_OBJECT
  5
3FE
102
{ACAD_REACTORS
330
3E0
102
}
330
3E0
100
AcDbProxyObject
 90
      499
 91
      506
 95
  2555929
 70
     0
 93
      265
310
90F312D312F3222203D2031272D3022000000000000003E0FC00000000000028407B
 94
        0
1001
ACAD
1000
AcRTDxfName
1000
SCALE
  0
ACAD_PROXY_OBJECT
  5
3FF
102
{ACAD_REACTORS
330
3E0
102
}
330
3E0
100
AcDbProxyObject
 90
      499
 91
      506
 95
  2555929
 70
     0
 93
      233
310
90B3322203D2031272D30220000000000000002100000000000000284028
 94
        0
1001
ACAD
1000
AcRTDxfName
1000
SCALE
  0
ACAD_PROXY_OBJECT
  5
400
102
{ACAD_REACTORS
330
3E0
102
}
330
3E0
100
AcDbProxyObject
 90
      499
 91
      506
 95
  2555929
 70
     0
 93
      233
310
90B3622203D2031272D30220000000000000006100000000000000284000
 94
        0
1001
ACAD
1000
AcRTDxfName
1000
SCALE
  0
ACAD_PROXY_OBJECT
  5
401
102
{ACAD_REACTORS
330
3E0
102
}
330
3E0
100
AcDbProxyObject
 90
      499
 91
      506
 95
  2555929
 70
     0
 93
      257
310
90E31272D3022203D2031272D3022000000000000000A100000000000000284000
 94
        0
1001
ACAD
1000
AcRTDxfName
1000
SCALE
  0
ACAD_PROXY_OBJECT
  5
1039
102
{ACAD_XDICTIONARY
360
1091
102
}
102
{ACAD_REACTORS
330
1038
102
}
330
1038
100
AcDbProxyObject
 90
      499
 91
      513
 95
  2555929
 70
     0
 93
     2325
310
9094D65747269633530004B34000000600000000000000002881000000180000000000000000A202229258409E5840A25840A65840B05840B4000000000000001220233000000180009940000006000000000000000028800000000000000A20400000060000000000000000288100000000000005C8080AB44A78B882C6AC
310
C2E440ACD2CAEEA6CAC6E8D2DEDCA6E8C2E4E892C87C4A5A4A78B882C6ACC2E440ACD2CAEEA6CAC6E8D2DEDC8ADCC892C87C4A40504A78B882C6ACC2E440ACD2CAEEA6C6C2D8CA40B8CC40444AE6DC447C4A5201000000180010000001900083A0A729A49998803100000000000000881000000000000008808340C16A22A7
310
D90FC9F8CAE65A70A583A07E1FE81C635378FA1F8CAE65A70A583A17E7944A7F127A97E9F8
340
11
340
0
340
0
340
16
340
16
340
11
 94
        0
1001
ACAD
1000
AcRTDxfName
1000
ACDBSECTIONVIEWSTYLE
  0
TABLESTYLE
  5
7F
102
{ACAD_XDICTIONARY
360
673
102
}
102
{ACAD_REACTORS
330
7E
102
}
330
7E
100
AcDbTableStyle
  3
Standard
 70
     0
 71
     0
 40
1.5
 41
1.5
280
     0
281
     0
  7
Standard
140
4.5
170
     2
 62
     0
 63
     7
283
     0
274
    -2
284
     1
 64
     0
275
    -2
285
     1
 65
     0
276
    -2
286
     1
 66
     0
277
    -2
287
     1
 67
     0
278
    -2
288
     1
 68
     0
279
    -2
289
     1
 69
     0
  7
Standard
140
6.0
170
     5
 62
     0
 63
     7
283
     0
274
    -2
284
     1
 64
     0
275
    -2
285
     1
 65
     0
276
    -2
286
     1
 66
     0
277
    -2
287
     1
 67
     0
278
    -2
288
     1
 68
     0
279
    -2
289
     1
 69
     0
  7
Standard
140
4.5
170
     5
 62
     0
 63
     7
283
     0
274
    -2
284
     1
 64
     0
275
    -2
285
     1
 65
     0
276
    -2
286
     1
 66
     0
277
    -2
287
     1
 67
     0
278
    -2
288
     1
 68
     0
279
    -2
289
     1
 69
     0
  0
ACAD_PROXY_OBJECT
  5
F8
102
{ACAD_XDICTIONARY
360
105D
102
}
102
{ACAD_REACTORS
330
F2
102
}
330
F2
100
AcDbProxyObject
 90
      499
 91
      504
 95
  2555929
 70
     0
 93
      606
310
430C9915DA5C99599C985B5940104902404333333333333E3BF0000000000000FB023FFFFFF0802405048070000C3008000000C800405A000000320014050640A01C00030C010500920280D0
 94
        0
1001
ACAD
1000
AcDbSavedByObjectVersion
1070
     0
1000
AcRTDxfName
1000
VISUALSTYLE
  0
ACAD_PROXY_OBJECT
  5
FA
102
{ACAD_XDICTIONARY
360
1061
102
}
102
{ACAD_REACTORS
330
F2
102
}
330
F2
100
AcDbProxyObject
 90
      499
 91
      504
 95
  2555929
 70
     0
 93
      662
310
428CD108121A5919195B8010640502408333333333333E3BF0000000000000FB023FFFFFF0802409028070000C3008000000C8004080000000000004440A000000320014050640A01C00030C010300920280D0
 94
        0
1001
ACAD
1000
AcDbSavedByObjectVersion
1070
     0
1000
AcRTDxfName
1000
VISUALSTYLE
  0
ACAD_PROXY_OBJECT
  5
F9
102
{ACAD_XDICTIONARY
360
105F
102
}
102
{ACAD_REACTORS
330
F2
102
}
330
F2
100
AcDbProxyObject
 90
      499
 91
      504
 95
  2555929
 70
     0
 93
      606
310
430CD915DA5C99599C985B5940105902404333333333333E3BF0000000000000FB023FFFFFF0802405048070000C3008000000C800405A000000320014050640A01C00030C010500920280D0
 94
        0
1001
ACAD
1000
AcDbSavedByObjectVersion
1070
     0
1000
AcRTDxfName
1000
VISUALSTYLE
  0
ACAD_PROXY_OBJECT
  5
F7
102
{ACAD_XDICTIONARY
360
105B
102
}
102
{ACAD_REACTORS
330
F2
102
}
330
F2
100
AcDbProxyObject
 90
      499
 91
      504
 95
  2555929
 70
     0
 93
      558
310
4190985CDA58C0107406404333333333333E3BF0000000000000FB023FFFFFF08029048070000C3008000000C80040542201C00030C014050640A01C00030C010500920280D6
 94
        0
1001
ACAD
1000
AcDbSavedByObjectVersion
1070
     0
1000
AcRTDxfName
1000
VISUALSTYLE
  0
ACAD_PROXY_OBJECT
  5
FE
102
{ACAD_XDICTIONARY
360
1069
102
}
102
{ACAD_REACTORS
330
F2
102
}
330
F2
100
AcDbProxyObject
 90
      499
 91
      504
 95
  2555929
 70
     0
 93
      606
310
42509C9A59DA1D195B8010C40902404333333333333E3BF0000000000000FB023FFFFFF0802405048070000C3008000000C80040542201C00030C014050640A01C00030C010500920280A654
 94
        0
1001
ACAD
1000
AcDbSavedByObjectVersion
1070
     0
1000
AcRTDxfName
1000
VISUALSTYLE
  0
ACAD_PROXY_OBJECT
  5
102
102
{ACAD_XDICTIONARY
360
1071
102
}
102
{ACAD_REACTORS
330
F2
102
}
330
F2
100
AcDbProxyObject
 90
      499
 91
      504
 95
  2555929
 70
     0
 93
      622
310
4310DBDB1BDC90DA185B99D9401104090240C333333333333E3BF0000000000000FB0220202030802405048070000C3008000000C800405422202020308014050640A01C00030C010500920280D7
 94
        0
1001
ACAD
1000
AcDbSavedByObjectVersion
1070
     0
1000
AcRTDxfName
1000
VISUALSTYLE
  0
ACAD_PROXY_OBJECT
  5
FB
102
{ACAD_XDICTIONARY
360
1063
102
}
102
{ACAD_REACTORS
330
F2
102
}
330
F2
100
AcDbProxyObject
 90
      499
 91
      504
 95
  2555929
 70
     0
 93
      678
310
42D0DBDB98D95C1D1D585B0010940D02404333333333333E3BF0000000000000FB023FFFFFF0802409028070000C3008000000C800404000000000000444042201C00030C014050640A01C00030C010300920280D0
 94
        0
1001
ACAD
1000
AcDbSavedByObjectVersion
1070
     0
1000
AcRTDxfName
1000
VISUALSTYLE
  0
ACAD_PROXY_OBJECT
  5
FD
102
{ACAD_XDICTIONARY
360
1067
102
}
102
{ACAD_REACTORS
330
F2
102
}
330
F2
100
AcDbProxyObject
 90
      499
 91
      504
 95
  2555929
 70
     0
 93
      590
310
41111A5B4010B40902404333333333333E3BF0000000000000FB023FFFFFF0802405048070000C3008000000C80040542201C00030C014050640A01C00030C01050092028099DFFFFFF4
 94
        0
1001
ACAD
1000
AcDbSavedByObjectVersion
1070
     0
1000
AcRTDxfName
1000
VISUALSTYLE
  0
ACAD_PROXY_OBJECT
  5
1037
102
{ACAD_XDICTIONARY
360
108F
102
}
102
{ACAD_REACTORS
330
F2
102
}
330
F2
100
AcDbProxyObject
 90
      499
 91
      504
 95
  2555929
 70
     0
 93
      622
310
43515919D950DBDB1BDC93D99980116409028333333333333E3BF0000000000000FB023FFFFFF0802405048070000C3008000000C80040542201C00030C014050640A01C00030C010500920280D4
 94
        0
1001
ACAD
1000
AcDbSavedByObjectVersion
1070
     0
1000
AcRTDxfName
1000
VISUALSTYLE
  0
ACAD_PROXY_OBJECT
  5
101
102
{ACAD_XDICTIONARY
360
106F
102
}
102
{ACAD_REACTORS
330
F2
102
}
330
F2
100
AcDbProxyObject
 90
      499
 91
      504
 95
  2555929
 70
     0
 93
      622
310
43119858D95C185D1D195C9B8010F40902404333333333333E3BF0000000000000FB023FFFFFF0802405048070000C3008000000C80040542201C00030C014050640A01C00030C010500920280D4
 94
        0
1001
ACAD
1000
AcDbSavedByObjectVersion
1070
     0
1000
AcRTDxfName
1000
VISUALSTYLE
  0
ACAD_PROXY_OBJECT
  5
F3
102
{ACAD_XDICTIONARY
360
1053
102
}
102
{ACAD_REACTORS
330
F2
102
}
330
F2
100
AcDbProxyObject
 90
      499
 91
      504
 95
  2555929
 70
     0
 93
      558
310
41519B185D00240901404333333333333E3BF0000000000000F9023FFFFFF0801029048070000C3008000000C80040542201C00030C014050640A01C00030C010500920286D4
 94
        0
1001
ACAD
1000
AcDbSavedByObjectVersion
1070
     0
1000
AcRTDxfName
1000
VISUALSTYLE
  0
ACAD_PROXY_OBJECT
  5
F4
102
{ACAD_XDICTIONARY
360
1055
102
}
102
{ACAD_REACTORS
330
F2
102
}
330
F2
100
AcDbProxyObject
 90
      499
 91
      504
 95
  2555929
 70
     0
 93
      638
310
43919B185D15DA5D1A115919D95CC010140901404333333333333E3BF0000000000000F9023FFFFFF080102405048070000C3008000000C800405A000000320014050640A01C00030C010500920286D4
 94
        0
1001
ACAD
1000
AcDbSavedByObjectVersion
1070
     0
1000
AcRTDxfName
1000
VISUALSTYLE
  0
ACAD_PROXY_OBJECT
  5
F5
102
{ACAD_XDICTIONARY
360
1057
102
}
102
{ACAD_REACTORS
330
F2
102
}
330
F2
100
AcDbProxyObject
 90
      499
 91
      504
 95
  2555929
 70
     0
 93
      582
310
4211DBDD5C985D590010240902404333333333333E3BF0000000000000F9023FFFFFF0801029048070000C3008000000C800405A01C00030C014050640A01C00030C010500920286D4
 94
        0
1001
ACAD
1000
AcDbSavedByObjectVersion
1070
     0
1000
AcRTDxfName
1000
VISUALSTYLE
  0
ACAD_PROXY_OBJECT
  5
F6
102
{ACAD_XDICTIONARY
360
1059
102
}
102
{ACAD_REACTORS
330
F2
102
}
330
F2
100
AcDbProxyObject
 90
      499
 91
      504
 95
  2555929
 70
     0
 93
      662
310
4451DBDD5C985D5915DA5D1A115919D95CC010340902404333333333333E3BF0000000000000F9023FFFFFF080102405048070000C3008000000C800405A000000320014050640A01C00030C010500920286D4
 94
        0
1001
ACAD
1000
AcDbSavedByObjectVersion
1070
     0
1000
AcRTDxfName
1000
VISUALSTYLE
  0
ACAD_PROXY_OBJECT
  5
102F
102
{ACAD_XDICTIONARY
360
107F
102
}
102
{ACAD_REACTORS
330
F2
102
}
330
F2
100
AcDbProxyObject
 90
      499
 91
      504
 95
  2555929
 70
     0
 93
      638
310
41D21A5919195B8010640502408333333333333E3BF0000000000000FB023FFFFFF0802409028070000C3008000000C8004080000000000004440A000000320014050640A01C00030C010300920280D0
 94
        0
1001
ACAD
1000
AcDbSavedByObjectVersion
1070
     0
1000
AcRTDxfName
1000
VISUALSTYLE
  0
ACAD_PROXY_OBJECT
  5
1035
102
{ACAD_XDICTIONARY
360
108B
102
}
102
{ACAD_REACTORS
330
F2
102
}
330
F2
100
AcDbProxyObject
 90
      499
 91
      504
 95
  2555929
 70
     0
 93
      598
310
42929A5D1D195C93D99980114409028333333333333E3BF0000000000000FB023FFFFFF0802405048070000C3008000000C80040542A01C00030C014050640A01C00030C010500920280D4
 94
        0
1001
ACAD
1000
AcDbSavedByObjectVersion
1070
     0
1000
AcRTDxfName
1000
VISUALSTYLE
  0
ACAD_PROXY_OBJECT
  5
100
102
{ACAD_XDICTIONARY
360
106D
102
}
102
{ACAD_REACTORS
330
F2
102
}
330
F2
100
AcDbProxyObject
 90
      499
 91
      504
 95
  2555929
 70
     0
 93
      622
310
43131A5B995C185D1D195C9B8010E40902404333333333333E3BF0000000000000FB023FFFFFF0802405048070000C3008000000C80041D42201C00030C014050640A01C00030C010500920E80D7
 94
        0
1001
ACAD
1000
AcDbSavedByObjectVersion
1070
     0
1000
AcRTDxfName
1000
VISUALSTYLE
  0
ACAD_PROXY_OBJECT
  5
1036
102
{ACAD_XDICTIONARY
360
108D
102
}
102
{ACAD_REACTORS
330
F2
102
}
330
F2
100
AcDbProxyObject
 90
      499
 91
      504
 95
  2555929
 70
     0
 93
      614
310
4313DD995C9A185B99D3D99980115409028333333333333E3BF0000000000000FB023FFFFFF0802405048070000C3008000000C80040542601C00030C014050640A01C00030C010500920280D4
 94
        0
1001
ACAD
1000
AcDbSavedByObjectVersion
1070
     0
1000
AcRTDxfName
1000
VISUALSTYLE
  0
ACAD_PROXY_OBJECT
  5
FC
102
{ACAD_XDICTIONARY
360
1065
102
}
102
{ACAD_REACTORS
330
F2
102
}
330
F2
100
AcDbProxyObject
 90
      499
 91
      504
 95
  2555929
 70
     0
 93
      598
310
429499585B1A5CDD1A58C010840902404333333333333E3BF0000000000000FB023FFFFFF08024068070000C3008000000C8004054221E1E1E308014050640A01C00030C010500920286D3
 94
        0
1001
ACAD
1000
AcDbSavedByObjectVersion
1070
     0
1000
AcRTDxfName
1000
VISUALSTYLE
  0
ACAD_PROXY_OBJECT
  5
1034
102
{ACAD_XDICTIONARY
360
1089
102
}
102
{ACAD_REACTORS
330
F2
102
}
330
F2
100
AcDbProxyObject
 90
      499
 91
      504
 95
  2555929
 70
     0
 93
      582
310
41D4DA185919590011B40902404333333333333E3BF0000000000000F9023FFFFFF0801029048070000C3008000000C800405422000000320014050640A1E1E1E308010300920282D0
 94
        0
1001
ACAD
1000
AcDbSavedByObjectVersion
1070
     0
1000
AcRTDxfName
1000
VISUALSTYLE
  0
ACAD_PROXY_OBJECT
  5
1033
102
{ACAD_XDICTIONARY
360
1087
102
}
102
{ACAD_REACTORS
330
F2
102
}
330
F2
100
AcDbProxyObject
 90
      499
 91
      504
 95
  2555929
 70
     0
 93
      678
310
4494DA18591959081DDA5D1A08195919D95CC011A40902404333333333333E3BF0000000000000F9023FFFFFF080102405028070000C3008000000C800409422000000320014050640A01C00030C010300920282D0
 94
        0
1001
ACAD
1000
AcDbSavedByObjectVersion
1070
     0
1000
AcRTDxfName
1000
VISUALSTYLE
  0
ACAD_PROXY_OBJECT
  5
1030
102
{ACAD_XDICTIONARY
360
1081
102
}
102
{ACAD_REACTORS
330
F2
102
}
330
F2
100
AcDbProxyObject
 90
      499
 91
      504
 95
  2555929
 70
     0
 93
      710
310
43D4DA1859195CC81BD98811DC985E401174090240C333333333333E3BF0000000000000FB023FFFFFF0802409028070000C3008070000C300404000000000000444042201C00030C014050640A01C00030C010300920280D0
 94
        0
1001
ACAD
1000
AcDbSavedByObjectVersion
1070
     0
1000
AcRTDxfName
1000
VISUALSTYLE
  0
ACAD_PROXY_OBJECT
  5
1031
102
{ACAD_XDICTIONARY
360
1083
102
}
102
{ACAD_REACTORS
330
F2
102
}
330
F2
100
AcDbProxyObject
 90
      499
 91
      504
 95
  2555929
 70
     0
 93
      654
310
4214DAD95D18DA1E4011840502408333333333333E3BF0000000000000FB023FFFFFF0802409028070000C3008070000C300404000000000000444042E01C00030C014050640A01C00030C010600920280D0
 94
        0
1001
ACAD
1000
AcDbSavedByObjectVersion
1070
     0
1000
AcRTDxfName
1000
VISUALSTYLE
  0
ACAD_PROXY_OBJECT
  5
FF
102
{ACAD_XDICTIONARY
360
106B
102
}
102
{ACAD_REACTORS
330
F2
102
}
330
F2
100
AcDbProxyObject
 90
      499
 91
      504
 95
  2555929
 70
     0
 93
      590
310
42151A1A58DAD95B8010D40902404333333333333E3BF0000000000000FB023FFFFFF0802405048070000C3008000000C80040543201C00030C014050640A01C00030C010500920280D4
 94
        0
1001
ACAD
1000
AcDbSavedByObjectVersion
1070
     0
1000
AcRTDxfName
1000
VISUALSTYLE
  0
ACAD_PROXY_OBJECT
  5
102E
102
{ACAD_XDICTIONARY
360
107D
102
}
102
{ACAD_REACTORS
330
F2
102
}
330
F2
100
AcDbProxyObject
 90
      499
 91
      504
 95
  2555929
 70
     0
 93
      582
310
4295DA5C99599C985B59401059028333333333333E3BF0000000000000FB023FFFFFF0802405048070000C3008000000C800405A000000320014050640A01C00030C010300920280D0
 94
        0
1001
ACAD
1000
AcDbSavedByObjectVersion
1070
     0
1000
AcRTDxfName
1000
VISUALSTYLE
  0
ACAD_PROXY_OBJECT
  5
1032
102
{ACAD_XDICTIONARY
360
1085
102
}
102
{ACAD_REACTORS
330
F2
102
}
330
F2
100
AcDbProxyObject
 90
      499
 91
      504
 95
  2555929
 70
     0
 93
      574
310
41960B54985E4011940902404000000000000E03F0000000000000FB023FFFFFF0801014068070000C3008000000C80040542201C00030C014050640A01C00030C010300920286D0
 94
        0
1001
ACAD
1000
AcDbSavedByObjectVersion
1070
     0
1000
AcRTDxfName
1000
VISUALSTYLE
  0
DICTIONARYVAR
  5
678
102
{ACAD_REACTORS
330
5E
102
}
330
5E
100
DictionaryVariables
280
     0
  1
1:1
  0
DICTIONARYVAR
  5
676
102
{ACAD_REACTORS
330
5E
102
}
330
5E
100
DictionaryVariables
280
     0
  1
STANDARD
  0
DICTIONARYVAR
  5
84
102
{ACAD_REACTORS
330
5E
102
}
330
5E
100
DictionaryVariables
280
     0
  1
STANDARD
  0
DICTIONARYVAR
  5
1095
102
{ACAD_REACTORS
330
5E
102
}
330
5E
100
DictionaryVariables
280
     0
  1
Metric50
  0
DICTIONARYVAR
  5
1096
102
{ACAD_REACTORS
330
5E
102
}
330
5E
100
DictionaryVariables
280
     0
  1
Metric50
  0
DICTIONARYVAR
  5
5F
102
{ACAD_REACTORS
330
5E
102
}
330
5E
100
DictionaryVariables
280
     0
  1
1
  0
DICTIONARYVAR
  5
63
102
{ACAD_REACTORS
330
5E
102
}
330
5E
100
DictionaryVariables
280
     0
  1
1
  0
DICTIONARYVAR
  5
102B
102
{ACAD_REACTORS
330
5E
102
}
330
5E
100
DictionaryVariables
280
     0
  1
1
  0
DICTIONARYVAR
  5
102C
102
{ACAD_REACTORS
330
5E
102
}
330
5E
100
DictionaryVariables
280
     0
  1
15
  0
DICTIONARYVAR
  5
679
102
{ACAD_REACTORS
330
5E
102
}
330
5E
100
DictionaryVariables
280
     0
  1
0
  0
DICTIONARYVAR
  5
677
102
{ACAD_REACTORS
330
5E
102
}
330
5E
100
DictionaryVariables
280
     0
  1
0
  0
DICTIONARYVAR
  5
EC22
102
{ACAD_REACTORS
330
5E
102
}
330
5E
100
DictionaryVariables
280
     0
  1

  0
DICTIONARYVAR
  5
1099
102
{ACAD_REACTORS
330
5E
102
}
330
5E
100
DictionaryVariables
280
     0
  1
80.000000
  0
DICTIONARYVAR
  5
1098
102
{ACAD_REACTORS
330
5E
102
}
330
5E
100
DictionaryVariables
280
     0
  1
5.000000
  0
DICTIONARYVAR
  5
1097
102
{ACAD_REACTORS
330
5E
102
}
330
5E
100
DictionaryVariables
280
     0
  1
1
  0
XRECORD
  5
6E8
102
{ACAD_REACTORS
330
6E7
102
}
330
6E7
100
AcDbXrecord
280
     1
300
ASK2000BIKOU>>A3横 1/4.9999999<<2                                                                                                                                                                                                                                                                               
  0
XRECORD
  5
7D3
102
{ACAD_REACTORS
330
6E7
102
}
330
6E7
100
AcDbXrecord
280
     1
  1
DwgScale
  0
XRECORD
  5
EB0
102
{ACAD_REACTORS
330
EAF
102
}
330
EAF
100
AcDbXrecord
280
     1
  1

 40
0.2000000029802322
 50
-8268.675736431701
 51
-5617.935845666074
 52
15910.14409235273
 53
11513.5026658771
  0
DICTIONARY
  5
1093
330
103B
100
AcDbDictionary
280
     1
281
     1
  3
ACAD_XREC_ROUNDTRIP
360
1094
  0
DICTIONARY
  5
EC26
330
22
100
AcDbDictionary
280
     1
281
     1
  3
ACAD_XREC_ROUNDTRIP
360
EC27
  0
DICTIONARY
  5
EC28
330
D3
100
AcDbDictionary
280
     1
281
     1
  3
ACAD_XREC_ROUNDTRIP
360
EC29
  0
DICTIONARY
  5
EC2A
330
D7
100
AcDbDictionary
280
     1
281
     1
  3
ACAD_XREC_ROUNDTRIP
360
EC2B
  0
DICTIONARY
  5
104F
330
F0
100
AcDbDictionary
280
     1
281
     1
  3
ACAD_XREC_ROUNDTRIP
360
1050
  0
DICTIONARY
  5
104D
330
EF
100
AcDbDictionary
280
     1
281
     1
  3
ACAD_XREC_ROUNDTRIP
360
104E
  0
DICTIONARY
  5
1051
330
F1
100
AcDbDictionary
280
     1
281
     1
  3
ACAD_XREC_ROUNDTRIP
360
1052
  0
DICTIONARY
  5
1091
330
1039
100
AcDbDictionary
280
     1
281
     1
  3
ACAD_XREC_ROUNDTRIP
360
1092
  0
DICTIONARY
  5
673
330
7F
100
AcDbDictionary
280
     1
281
     1
  3
ACAD_ROUNDTRIP_2008_TABLESTYLE_CELLSTYLEMAP
360
1044
  3
ACAD_XREC_ROUNDTRIP
360
104C
  0
DICTIONARY
  5
105D
330
F8
100
AcDbDictionary
280
     1
281
     1
  3
ACAD_XREC_ROUNDTRIP
360
105E
  0
DICTIONARY
  5
1061
330
FA
100
AcDbDictionary
280
     1
281
     1
  3
ACAD_XREC_ROUNDTRIP
360
1062
  0
DICTIONARY
  5
105F
330
F9
100
AcDbDictionary
280
     1
281
     1
  3
ACAD_XREC_ROUNDTRIP
360
1060
  0
DICTIONARY
  5
105B
330
F7
100
AcDbDictionary
280
     1
281
     1
  3
ACAD_XREC_ROUNDTRIP
360
105C
  0
DICTIONARY
  5
1069
330
FE
100
AcDbDictionary
280
     1
281
     1
  3
ACAD_XREC_ROUNDTRIP
360
106A
  0
DICTIONARY
  5
1071
330
102
100
AcDbDictionary
280
     1
281
     1
  3
ACAD_XREC_ROUNDTRIP
360
1072
  0
DICTIONARY
  5
1063
330
FB
100
AcDbDictionary
280
     1
281
     1
  3
ACAD_XREC_ROUNDTRIP
360
1064
  0
DICTIONARY
  5
1067
330
FD
100
AcDbDictionary
280
     1
281
     1
  3
ACAD_XREC_ROUNDTRIP
360
1068
  0
DICTIONARY
  5
108F
330
1037
100
AcDbDictionary
280
     1
281
     1
  3
ACAD_XREC_ROUNDTRIP
360
1090
  0
DICTIONARY
  5
106F
330
101
100
AcDbDictionary
280
     1
281
     1
  3
ACAD_XREC_ROUNDTRIP
360
1070
  0
DICTIONARY
  5
1053
330
F3
100
AcDbDictionary
280
     1
281
     1
  3
ACAD_XREC_ROUNDTRIP
360
1054
  0
DICTIONARY
  5
1055
330
F4
100
AcDbDictionary
280
     1
281
     1
  3
ACAD_XREC_ROUNDTRIP
360
1056
  0
DICTIONARY
  5
1057
330
F5
100
AcDbDictionary
280
     1
281
     1
  3
ACAD_XREC_ROUNDTRIP
360
1058
  0
DICTIONARY
  5
1059
330
F6
100
AcDbDictionary
280
     1
281
     1
  3
ACAD_XREC_ROUNDTRIP
360
105A
  0
DICTIONARY
  5
107F
330
102F
100
AcDbDictionary
280
     1
281
     1
  3
ACAD_XREC_ROUNDTRIP
360
1080
  0
DICTIONARY
  5
108B
330
1035
100
AcDbDictionary
280
     1
281
     1
  3
ACAD_XREC_ROUNDTRIP
360
108C
  0
DICTIONARY
  5
106D
330
100
100
AcDbDictionary
280
     1
281
     1
  3
ACAD_XREC_ROUNDTRIP
360
106E
  0
DICTIONARY
  5
108D
330
1036
100
AcDbDictionary
280
     1
281
     1
  3
ACAD_XREC_ROUNDTRIP
360
108E
  0
DICTIONARY
  5
1065
330
FC
100
AcDbDictionary
280
     1
281
     1
  3
ACAD_XREC_ROUNDTRIP
360
1066
  0
DICTIONARY
  5
1089
330
1034
100
AcDbDictionary
280
     1
281
     1
  3
ACAD_XREC_ROUNDTRIP
360
108A
  0
DICTIONARY
  5
1087
330
1033
100
AcDbDictionary
280
     1
281
     1
  3
ACAD_XREC_ROUNDTRIP
360
1088
  0
DICTIONARY
  5
1081
330
1030
100
AcDbDictionary
280
     1
281
     1
  3
ACAD_XREC_ROUNDTRIP
360
1082
  0
DICTIONARY
  5
1083
330
1031
100
AcDbDictionary
280
     1
281
     1
  3
ACAD_XREC_ROUNDTRIP
360
1084
  0
DICTIONARY
  5
106B
330
FF
100
AcDbDictionary
280
     1
281
     1
  3
ACAD_XREC_ROUNDTRIP
360
106C
  0
DICTIONARY
  5
107D
330
102E
100
AcDbDictionary
280
     1
281
     1
  3
ACAD_XREC_ROUNDTRIP
360
107E
  0
DICTIONARY
  5
1085
330
1032
100
AcDbDictionary
280
     1
281
     1
  3
ACAD_XREC_ROUNDTRIP
360
1086
  0
XRECORD
  5
1094
102
{ACAD_REACTORS
330
1093
102
}
330
1093
100
AcDbXrecord
280
     1
102
DISPLAYNAME
  1
Metric50
102
FLAGS
 90
        0
  0
XRECORD
  5
EC27
102
{ACAD_REACTORS
330
EC26
102
}
330
EC26
100
AcDbXrecord
280
     1
102
SHADEPLOT
 70
     0
102
SHADEPLOTRESLEVEL
 70
     2
102
SHADEPLOTCUSTOMDPI
 70
   300
  0
XRECORD
  5
EC29
102
{ACAD_REACTORS
330
EC28
102
}
330
EC28
100
AcDbXrecord
280
     1
102
SHADEPLOT
 70
     0
102
SHADEPLOTRESLEVEL
 70
     2
102
SHADEPLOTCUSTOMDPI
 70
   300
  0
XRECORD
  5
EC2B
102
{ACAD_REACTORS
330
EC2A
102
}
330
EC2A
100
AcDbXrecord
280
     1
102
SHADEPLOT
 70
     0
102
SHADEPLOTRESLEVEL
 70
     2
102
SHADEPLOTCUSTOMDPI
 70
   300
  0
XRECORD
  5
1050
102
{ACAD_REACTORS
330
104F
102
}
330
104F
100
AcDbXrecord
280
     1
102
MATERIAL
148
0.0
149
0.0
149
0.0
 93
        0
 94
       63
282
     0
 72
     1
 77
     1
171
     1
175
     1
179
     1
273
     0
  0
XRECORD
  5
104E
102
{ACAD_REACTORS
330
104D
102
}
330
104D
100
AcDbXrecord
280
     1
102
MATERIAL
148
0.0
149
0.0
149
0.0
 93
        0
 94
       63
282
     0
 72
     1
 77
     1
171
     1
175
     1
179
     1
273
     0
  0
XRECORD
  5
1052
102
{ACAD_REACTORS
330
1051
102
}
330
1051
100
AcDbXrecord
280
     1
102
MATERIAL
148
0.0
149
0.0
149
0.0
 93
        0
 94
       63
282
     0
 72
     1
 77
     1
171
     1
175
     1
179
     1
273
     0
  0
XRECORD
  5
1092
102
{ACAD_REACTORS
330
1091
102
}
330
1091
100
AcDbXrecord
280
     1
102
DISPLAYNAME
  1
Metric50
102
FLAGS
 90
        0
  0
ACAD_PROXY_OBJECT
  5
1044
102
{ACAD_REACTORS
330
673
102
}
330
673
100
AcDbProxyObject
 90
      499
 91
      508
 95
  2555929
 70
     0
 93
     5304
310
40D054060020000020000003200101A000080002A5058000000C10000000000000006101010000000000003E0FC000000000000F83F0000000000003E0FC000000000000F83F02B5E8DC0F42B1CFC0AD7A3703D0AC73F419019018000000C1003FBFFFFFE02B5E8DC0F42A9CFD029018000000C1003FBFFFFFE02B5E8DC0F4
310
2A9CFD049018000000C1003FBFFFFFE02B5E8DC0F42A9CFD089018000000C1003FBFFFFFE02B5E8DC0F42A9CFD109018000000C1003FBFFFFFE02B5E8DC0F42A9CFD209018000000C1003FBFFFFFE02B5E8DC0F42A9CFD01405075F5449544C450041501A8000000C800406800020000A94160000003040000000000000012
310
40404000000000000F83F0000000000003E0FC000000000000F83F0000000000003E0FC0AD7A3703D0AC73F02B5E8DC0F42B1CFD0640640600000030400FEFFFFFF80AD7A3703D0AA73F40A40600000030400FEFFFFFF80AD7A3703D0AA73F41240600000030400FEFFFFFF80AD7A3703D0AA73F42240600000030400FEFFF
310
FFF80AD7A3703D0AA73F44240600000030400FEFFFFFF80AD7A3703D0AA73F48240600000030400FEFFFFFF80AD7A3703D0AA73F409014217D2115051115480105406A0000003200101A000080002A5028000000C10000000000000004901010000000000003E0FC000000000000F83F0000000000003E0FC000000000000F
310
83F02B5E8DC0F42B1CFC0AD7A3703D0AC73F419019018000000C1003FBFFFFFE02B5E8DC0F42A9CFD029018000000C1003FBFFFFFE02B5E8DC0F42A9CFD049018000000C1003FBFFFFFE02B5E8DC0F42A9CFD089018000000C1003FBFFFFFE02B5E8DC0F42A9CFD109018000000C1003FBFFFFFE02B5E8DC0F42A9CFD20901
310
8000000C1003FBFFFFFE02B5E8DC0F42A9CFD03409065F444154410000
340
11
340
0
340
0
340
0
340
0
340
0
340
0
340
11
340
0
340
0
340
0
340
0
340
0
340
0
340
11
340
0
340
0
340
0
340
0
340
0
340
0
 94
        0
1001
ACAD
1000
AcRTDxfName
1000
CELLSTYLEMAP
  0
XRECORD
  5
104C
102
{ACAD_REACTORS
330
673
102
}
330
673
100
AcDbXrecord
280
     1
102
ACAD_ROUNDTRIP_PRE2007_TABLESTYLE
 90
      512
 91
        0
  1

 92
      512
 93
        0
  2

 94
      512
 95
        0
  3

  0
XRECORD
  5
105E
102
{ACAD_REACTORS
330
105D
102
}
330
105D
100
AcDbXrecord
280
     1
102
RTVSPost2010Prop28
280
     1
102
RTVSPost2010PropOp28
 70
     1
102
RTVSPost2010Prop29
280
     1
102
RTVSPost2010PropOp29
 70
     1
102
RTVSPost2010Prop30
280
     0
102
RTVSPost2010PropOp30
 70
     1
102
RTVSPost2010Prop31
280
     0
102
RTVSPost2010PropOp31
 70
     1
102
RTVSPost2010Prop32
280
     0
102
RTVSPost2010PropOp32
 70
     1
102
RTVSPost2010Prop33
280
     0
102
RTVSPost2010PropOp33
 70
     1
102
RTVSPost2010Prop34
280
     0
102
RTVSPost2010PropOp34
 70
     1
102
RTVSPost2010Prop35
280
     0
102
RTVSPost2010PropOp35
 70
     1
102
RTVSPost2010Prop36
280
     0
102
RTVSPost2010PropOp36
 70
     1
102
RTVSPost2010Prop37
 90
       50
102
RTVSPost2010PropOp37
 70
     1
102
RTVSPost2010Prop38
140
0.0
102
RTVSPost2010PropOp38
 70
     1
102
RTVSPost2010Prop39
140
1.0
102
RTVSPost2010PropOp39
 70
     1
102
RTVSPost2010Prop40
 90
        0
102
RTVSPost2010PropOp40
 70
     1
102
RTVSPost2010Prop41ColorIndex
 90
       18
102
RTVSPost2010Prop41ColorRGB
 90
        0
102
RTVSPost2010PropOp41
 70
     1
102
RTVSPost2010Prop42
 90
       50
102
RTVSPost2010PropOp42
 70
     1
102
RTVSPost2010Prop43
 90
        3
102
RTVSPost2010PropOp43
 70
     1
102
RTVSPost2010Prop44ColorIndex
 90
        5
102
RTVSPost2010Prop44ColorRGB
 90
      255
102
RTVSPost2010PropOp44
 70
     1
102
RTVSPost2010Prop45
280
     0
102
RTVSPost2010PropOp45
 70
     1
102
RTVSPost2010Prop46
 90
       50
102
RTVSPost2010PropOp46
 70
     1
102
RTVSPost2010Prop47
 90
       50
102
RTVSPost2010PropOp47
 70
     1
102
RTVSPost2010Prop48
 90
       50
102
RTVSPost2010PropOp48
 70
     1
102
RTVSPost2010Prop49
280
     0
102
RTVSPost2010PropOp49
 70
     1
102
RTVSPost2010Prop50
 90
       50
102
RTVSPost2010PropOp50
 70
     1
102
RTVSPost2010Prop51ColorIndex
 90
      256
102
RTVSPost2010Prop51ColorRGB
 90
-16777216
102
RTVSPost2010PropOp51
 70
     0
102
RTVSPost2010Prop52
140
1.0
102
RTVSPost2010PropOp52
 70
     0
102
RTVSPost2010Prop53
 90
        2
102
RTVSPost2010PropOp53
 70
     1
102
RTVSPost2010Prop54
  1
strokes_ogs.tif
102
RTVSPost2010PropOp54
 70
     1
102
RTVSPost2010Prop55
280
     0
102
RTVSPost2010PropOp55
 70
     1
102
RTVSPost2010Prop56
140
1.0
102
RTVSPost2010PropOp56
 70
     1
102
RTVSPost2010Prop57
140
1.0
102
RTVSPost2010PropOp57
 70
     1
102
RTVSPropertyOp0
 70
     1
102
RTVSPropertyOp1
 70
     1
102
RTVSPropertyOp2
 70
     1
102
RTVSPropertyOp3
 70
     1
102
RTVSPropertyOp4
 70
     1
102
RTVSPropertyOp5
 70
     1
102
RTVSPropertyOp6
 70
     1
102
RTVSPropertyOp7
 70
     1
102
RTVSPropertyOp8
 70
     1
102
RTVSPropertyOp9
 70
     1
102
RTVSPropertyOp10
 70
     1
102
RTVSPropertyOp11
 70
     1
102
RTVSPropertyOp12
 70
     1
102
RTVSPropertyOp13
 70
     1
102
RTVSPropertyOp14
 70
     1
102
RTVSPropertyOp15
 70
     1
102
RTVSPropertyOp16
 70
     1
102
RTVSPropertyOp17
 70
     1
102
RTVSPropertyOp18
 70
     1
102
RTVSPropertyOp19
 70
     1
102
RTVSPropertyOp20
 70
     1
102
RTVSPropertyOp21
 70
     1
102
RTVSPropertyOp22
 70
     1
102
RTVSPropertyOp23
 70
     1
102
RTVSPropertyOp24
 70
     1
102
RTVSPropertyOp25
 70
     1
102
RTVSPropertyOp26
 70
     1
102
RTVSPropertyOp27
 70
     1
102
RTVSPropertyOp28
 70
     1
102
RTVSPropertyOp29
 70
     1
102
RTVSPropertyOp30
 70
     1
102
RTVSPropertyOp31
 70
     1
102
RTVSPropertyOp32
 70
     1
102
RTVSPropertyOp33
 70
     1
102
RTVSPropertyOp34
 70
     1
102
RTVSPropertyOp35
 70
     1
102
RTVSPropertyOp36
 70
     1
102
RTVSPropertyOp37
 70
     1
102
RTVSPropertyOp38
 70
     1
102
RTVSPropertyOp39
 70
     1
102
RTVSPropertyOp40
 70
     1
102
RTVSPropertyOp41
 70
     1
102
RTVSPropertyOp42
 70
     1
102
RTVSPropertyOp43
 70
     1
102
RTVSPropertyOp44
 70
     1
102
RTVSPropertyOp45
 70
     1
102
RTVSPropertyOp46
 70
     1
102
RTVSPropertyOp47
 70
     1
102
RTVSPropertyOp48
 70
     1
102
RTVSPropertyOp49
 70
     1
102
RTVSPropertyOp50
 70
     1
102
RTVSPropertyOp51
 70
     0
102
RTVSPropertyOp52
 70
     0
102
RTVSPropertyOp53
 70
     1
102
RTVSPropertyOp54
 70
     1
102
RTVSPropertyOp55
 70
     1
102
RTVSPropertyOp56
 70
     1
102
RTVSPropertyOp57
 70
     1
102
RTVSPropertyOp58
 70
     1
102
RTVSPropertyOp59
 70
     1
102
RTVSPropertyOp60
 70
     1
102
RTVSPropertyOp61
 70
     1
102
RTVSPropertyOp62
 70
     1
  0
XRECORD
  5
1062
102
{ACAD_REACTORS
330
1061
102
}
330
1061
100
AcDbXrecord
280
     1
102
RTVSPost2010Prop28
280
     0
102
RTVSPost2010PropOp28
 70
     1
102
RTVSPost2010Prop29
280
     1
102
RTVSPost2010PropOp29
 70
     1
102
RTVSPost2010Prop30
280
     1
102
RTVSPost2010PropOp30
 70
     1
102
RTVSPost2010Prop31
280
     0
102
RTVSPost2010PropOp31
 70
     1
102
RTVSPost2010Prop32
280
     0
102
RTVSPost2010PropOp32
 70
     1
102
RTVSPost2010Prop33
280
     0
102
RTVSPost2010PropOp33
 70
     1
102
RTVSPost2010Prop34
280
     0
102
RTVSPost2010PropOp34
 70
     1
102
RTVSPost2010Prop35
280
     0
102
RTVSPost2010PropOp35
 70
     1
102
RTVSPost2010Prop36
280
     0
102
RTVSPost2010PropOp36
 70
     1
102
RTVSPost2010Prop37
 90
       50
102
RTVSPost2010PropOp37
 70
     1
102
RTVSPost2010Prop38
140
0.0
102
RTVSPost2010PropOp38
 70
     1
102
RTVSPost2010Prop39
140
1.0
102
RTVSPost2010PropOp39
 70
     1
102
RTVSPost2010Prop40
 90
        0
102
RTVSPost2010PropOp40
 70
     1
102
RTVSPost2010Prop41ColorIndex
 90
       18
102
RTVSPost2010Prop41ColorRGB
 90
        0
102
RTVSPost2010PropOp41
 70
     1
102
RTVSPost2010Prop42
 90
       50
102
RTVSPost2010PropOp42
 70
     1
102
RTVSPost2010Prop43
 90
        3
102
RTVSPost2010PropOp43
 70
     1
102
RTVSPost2010Prop44ColorIndex
 90
        5
102
RTVSPost2010Prop44ColorRGB
 90
      255
102
RTVSPost2010PropOp44
 70
     1
102
RTVSPost2010Prop45
280
     0
102
RTVSPost2010PropOp45
 70
     1
102
RTVSPost2010Prop46
 90
       50
102
RTVSPost2010PropOp46
 70
     1
102
RTVSPost2010Prop47
 90
       50
102
RTVSPost2010PropOp47
 70
     1
102
RTVSPost2010Prop48
 90
       50
102
RTVSPost2010PropOp48
 70
     1
102
RTVSPost2010Prop49
280
     0
102
RTVSPost2010PropOp49
 70
     1
102
RTVSPost2010Prop50
 90
       50
102
RTVSPost2010PropOp50
 70
     1
102
RTVSPost2010Prop51ColorIndex
 90
      256
102
RTVSPost2010Prop51ColorRGB
 90
-16777216
102
RTVSPost2010PropOp51
 70
     0
102
RTVSPost2010Prop52
140
1.0
102
RTVSPost2010PropOp52
 70
     0
102
RTVSPost2010Prop53
 90
        2
102
RTVSPost2010PropOp53
 70
     1
102
RTVSPost2010Prop54
  1
strokes_ogs.tif
102
RTVSPost2010PropOp54
 70
     1
102
RTVSPost2010Prop55
280
     0
102
RTVSPost2010PropOp55
 70
     1
102
RTVSPost2010Prop56
140
1.0
102
RTVSPost2010PropOp56
 70
     1
102
RTVSPost2010Prop57
140
1.0
102
RTVSPost2010PropOp57
 70
     1
102
RTVSPropertyOp0
 70
     1
102
RTVSPropertyOp1
 70
     1
102
RTVSPropertyOp2
 70
     1
102
RTVSPropertyOp3
 70
     1
102
RTVSPropertyOp4
 70
     1
102
RTVSPropertyOp5
 70
     1
102
RTVSPropertyOp6
 70
     1
102
RTVSPropertyOp7
 70
     1
102
RTVSPropertyOp8
 70
     1
102
RTVSPropertyOp9
 70
     1
102
RTVSPropertyOp10
 70
     1
102
RTVSPropertyOp11
 70
     1
102
RTVSPropertyOp12
 70
     1
102
RTVSPropertyOp13
 70
     1
102
RTVSPropertyOp14
 70
     1
102
RTVSPropertyOp15
 70
     1
102
RTVSPropertyOp16
 70
     1
102
RTVSPropertyOp17
 70
     1
102
RTVSPropertyOp18
 70
     1
102
RTVSPropertyOp19
 70
     1
102
RTVSPropertyOp20
 70
     1
102
RTVSPropertyOp21
 70
     1
102
RTVSPropertyOp22
 70
     1
102
RTVSPropertyOp23
 70
     1
102
RTVSPropertyOp24
 70
     1
102
RTVSPropertyOp25
 70
     1
102
RTVSPropertyOp26
 70
     1
102
RTVSPropertyOp27
 70
     1
102
RTVSPropertyOp28
 70
     1
102
RTVSPropertyOp29
 70
     1
102
RTVSPropertyOp30
 70
     1
102
RTVSPropertyOp31
 70
     1
102
RTVSPropertyOp32
 70
     1
102
RTVSPropertyOp33
 70
     1
102
RTVSPropertyOp34
 70
     1
102
RTVSPropertyOp35
 70
     1
102
RTVSPropertyOp36
 70
     1
102
RTVSPropertyOp37
 70
     1
102
RTVSPropertyOp38
 70
     1
102
RTVSPropertyOp39
 70
     1
102
RTVSPropertyOp40
 70
     1
102
RTVSPropertyOp41
 70
     1
102
RTVSPropertyOp42
 70
     1
102
RTVSPropertyOp43
 70
     1
102
RTVSPropertyOp44
 70
     1
102
RTVSPropertyOp45
 70
     1
102
RTVSPropertyOp46
 70
     1
102
RTVSPropertyOp47
 70
     1
102
RTVSPropertyOp48
 70
     1
102
RTVSPropertyOp49
 70
     1
102
RTVSPropertyOp50
 70
     1
102
RTVSPropertyOp51
 70
     0
102
RTVSPropertyOp52
 70
     0
102
RTVSPropertyOp53
 70
     1
102
RTVSPropertyOp54
 70
     1
102
RTVSPropertyOp55
 70
     1
102
RTVSPropertyOp56
 70
     1
102
RTVSPropertyOp57
 70
     1
102
RTVSPropertyOp58
 70
     1
102
RTVSPropertyOp59
 70
     1
102
RTVSPropertyOp60
 70
     1
102
RTVSPropertyOp61
 70
     1
102
RTVSPropertyOp62
 70
     1
  0
XRECORD
  5
1060
102
{ACAD_REACTORS
330
105F
102
}
330
105F
100
AcDbXrecord
280
     1
102
RTVSPost2010Prop28
280
     0
102
RTVSPost2010PropOp28
 70
     1
102
RTVSPost2010Prop29
280
     1
102
RTVSPost2010PropOp29
 70
     1
102
RTVSPost2010Prop30
280
     1
102
RTVSPost2010PropOp30
 70
     1
102
RTVSPost2010Prop31
280
     0
102
RTVSPost2010PropOp31
 70
     1
102
RTVSPost2010Prop32
280
     0
102
RTVSPost2010PropOp32
 70
     1
102
RTVSPost2010Prop33
280
     0
102
RTVSPost2010PropOp33
 70
     1
102
RTVSPost2010Prop34
280
     0
102
RTVSPost2010PropOp34
 70
     1
102
RTVSPost2010Prop35
280
     0
102
RTVSPost2010PropOp35
 70
     1
102
RTVSPost2010Prop36
280
     0
102
RTVSPost2010PropOp36
 70
     1
102
RTVSPost2010Prop37
 90
       50
102
RTVSPost2010PropOp37
 70
     1
102
RTVSPost2010Prop38
140
0.0
102
RTVSPost2010PropOp38
 70
     1
102
RTVSPost2010Prop39
140
1.0
102
RTVSPost2010PropOp39
 70
     1
102
RTVSPost2010Prop40
 90
        0
102
RTVSPost2010PropOp40
 70
     1
102
RTVSPost2010Prop41ColorIndex
 90
       18
102
RTVSPost2010Prop41ColorRGB
 90
        0
102
RTVSPost2010PropOp41
 70
     1
102
RTVSPost2010Prop42
 90
       50
102
RTVSPost2010PropOp42
 70
     1
102
RTVSPost2010Prop43
 90
        3
102
RTVSPost2010PropOp43
 70
     1
102
RTVSPost2010Prop44ColorIndex
 90
        5
102
RTVSPost2010Prop44ColorRGB
 90
      255
102
RTVSPost2010PropOp44
 70
     1
102
RTVSPost2010Prop45
280
     0
102
RTVSPost2010PropOp45
 70
     1
102
RTVSPost2010Prop46
 90
       50
102
RTVSPost2010PropOp46
 70
     1
102
RTVSPost2010Prop47
 90
       50
102
RTVSPost2010PropOp47
 70
     1
102
RTVSPost2010Prop48
 90
       50
102
RTVSPost2010PropOp48
 70
     1
102
RTVSPost2010Prop49
280
     0
102
RTVSPost2010PropOp49
 70
     1
102
RTVSPost2010Prop50
 90
       50
102
RTVSPost2010PropOp50
 70
     1
102
RTVSPost2010Prop51ColorIndex
 90
      256
102
RTVSPost2010Prop51ColorRGB
 90
-16777216
102
RTVSPost2010PropOp51
 70
     0
102
RTVSPost2010Prop52
140
1.0
102
RTVSPost2010PropOp52
 70
     0
102
RTVSPost2010Prop53
 90
        2
102
RTVSPost2010PropOp53
 70
     1
102
RTVSPost2010Prop54
  1
strokes_ogs.tif
102
RTVSPost2010PropOp54
 70
     1
102
RTVSPost2010Prop55
280
     0
102
RTVSPost2010PropOp55
 70
     1
102
RTVSPost2010Prop56
140
1.0
102
RTVSPost2010PropOp56
 70
     1
102
RTVSPost2010Prop57
140
1.0
102
RTVSPost2010PropOp57
 70
     1
102
RTVSPropertyOp0
 70
     1
102
RTVSPropertyOp1
 70
     1
102
RTVSPropertyOp2
 70
     1
102
RTVSPropertyOp3
 70
     1
102
RTVSPropertyOp4
 70
     1
102
RTVSPropertyOp5
 70
     1
102
RTVSPropertyOp6
 70
     1
102
RTVSPropertyOp7
 70
     1
102
RTVSPropertyOp8
 70
     1
102
RTVSPropertyOp9
 70
     1
102
RTVSPropertyOp10
 70
     1
102
RTVSPropertyOp11
 70
     1
102
RTVSPropertyOp12
 70
     1
102
RTVSPropertyOp13
 70
     1
102
RTVSPropertyOp14
 70
     1
102
RTVSPropertyOp15
 70
     1
102
RTVSPropertyOp16
 70
     1
102
RTVSPropertyOp17
 70
     1
102
RTVSPropertyOp18
 70
     1
102
RTVSPropertyOp19
 70
     1
102
RTVSPropertyOp20
 70
     1
102
RTVSPropertyOp21
 70
     1
102
RTVSPropertyOp22
 70
     1
102
RTVSPropertyOp23
 70
     1
102
RTVSPropertyOp24
 70
     1
102
RTVSPropertyOp25
 70
     1
102
RTVSPropertyOp26
 70
     1
102
RTVSPropertyOp27
 70
     1
102
RTVSPropertyOp28
 70
     1
102
RTVSPropertyOp29
 70
     1
102
RTVSPropertyOp30
 70
     1
102
RTVSPropertyOp31
 70
     1
102
RTVSPropertyOp32
 70
     1
102
RTVSPropertyOp33
 70
     1
102
RTVSPropertyOp34
 70
     1
102
RTVSPropertyOp35
 70
     1
102
RTVSPropertyOp36
 70
     1
102
RTVSPropertyOp37
 70
     1
102
RTVSPropertyOp38
 70
     1
102
RTVSPropertyOp39
 70
     1
102
RTVSPropertyOp40
 70
     1
102
RTVSPropertyOp41
 70
     1
102
RTVSPropertyOp42
 70
     1
102
RTVSPropertyOp43
 70
     1
102
RTVSPropertyOp44
 70
     1
102
RTVSPropertyOp45
 70
     1
102
RTVSPropertyOp46
 70
     1
102
RTVSPropertyOp47
 70
     1
102
RTVSPropertyOp48
 70
     1
102
RTVSPropertyOp49
 70
     1
102
RTVSPropertyOp50
 70
     1
102
RTVSPropertyOp51
 70
     0
102
RTVSPropertyOp52
 70
     0
102
RTVSPropertyOp53
 70
     1
102
RTVSPropertyOp54
 70
     1
102
RTVSPropertyOp55
 70
     1
102
RTVSPropertyOp56
 70
     1
102
RTVSPropertyOp57
 70
     1
102
RTVSPropertyOp58
 70
     1
102
RTVSPropertyOp59
 70
     1
102
RTVSPropertyOp60
 70
     1
102
RTVSPropertyOp61
 70
     1
102
RTVSPropertyOp62
 70
     1
  0
XRECORD
  5
105C
102
{ACAD_REACTORS
330
105B
102
}
330
105B
100
AcDbXrecord
280
     1
102
RTVSPost2010Prop28
280
     0
102
RTVSPost2010PropOp28
 70
     1
102
RTVSPost2010Prop29
280
     1
102
RTVSPost2010PropOp29
 70
     1
102
RTVSPost2010Prop30
280
     1
102
RTVSPost2010PropOp30
 70
     1
102
RTVSPost2010Prop31
280
     0
102
RTVSPost2010PropOp31
 70
     1
102
RTVSPost2010Prop32
280
     0
102
RTVSPost2010PropOp32
 70
     1
102
RTVSPost2010Prop33
280
     0
102
RTVSPost2010PropOp33
 70
     1
102
RTVSPost2010Prop34
280
     0
102
RTVSPost2010PropOp34
 70
     1
102
RTVSPost2010Prop35
280
     0
102
RTVSPost2010PropOp35
 70
     1
102
RTVSPost2010Prop36
280
     0
102
RTVSPost2010PropOp36
 70
     1
102
RTVSPost2010Prop37
 90
       50
102
RTVSPost2010PropOp37
 70
     1
102
RTVSPost2010Prop38
140
0.0
102
RTVSPost2010PropOp38
 70
     1
102
RTVSPost2010Prop39
140
1.0
102
RTVSPost2010PropOp39
 70
     1
102
RTVSPost2010Prop40
 90
        0
102
RTVSPost2010PropOp40
 70
     1
102
RTVSPost2010Prop41ColorIndex
 90
       18
102
RTVSPost2010Prop41ColorRGB
 90
        0
102
RTVSPost2010PropOp41
 70
     1
102
RTVSPost2010Prop42
 90
       50
102
RTVSPost2010PropOp42
 70
     1
102
RTVSPost2010Prop43
 90
        3
102
RTVSPost2010PropOp43
 70
     1
102
RTVSPost2010Prop44ColorIndex
 90
        5
102
RTVSPost2010Prop44ColorRGB
 90
      255
102
RTVSPost2010PropOp44
 70
     1
102
RTVSPost2010Prop45
280
     0
102
RTVSPost2010PropOp45
 70
     1
102
RTVSPost2010Prop46
 90
       50
102
RTVSPost2010PropOp46
 70
     1
102
RTVSPost2010Prop47
 90
       50
102
RTVSPost2010PropOp47
 70
     1
102
RTVSPost2010Prop48
 90
       50
102
RTVSPost2010PropOp48
 70
     1
102
RTVSPost2010Prop49
280
     0
102
RTVSPost2010PropOp49
 70
     1
102
RTVSPost2010Prop50
 90
       50
102
RTVSPost2010PropOp50
 70
     1
102
RTVSPost2010Prop51ColorIndex
 90
      256
102
RTVSPost2010Prop51ColorRGB
 90
-16777216
102
RTVSPost2010PropOp51
 70
     0
102
RTVSPost2010Prop52
140
1.0
102
RTVSPost2010PropOp52
 70
     0
102
RTVSPost2010Prop53
 90
        2
102
RTVSPost2010PropOp53
 70
     1
102
RTVSPost2010Prop54
  1
strokes_ogs.tif
102
RTVSPost2010PropOp54
 70
     1
102
RTVSPost2010Prop55
280
     0
102
RTVSPost2010PropOp55
 70
     1
102
RTVSPost2010Prop56
140
1.0
102
RTVSPost2010PropOp56
 70
     1
102
RTVSPost2010Prop57
140
1.0
102
RTVSPost2010PropOp57
 70
     1
102
RTVSPropertyOp0
 70
     1
102
RTVSPropertyOp1
 70
     1
102
RTVSPropertyOp2
 70
     1
102
RTVSPropertyOp3
 70
     1
102
RTVSPropertyOp4
 70
     1
102
RTVSPropertyOp5
 70
     1
102
RTVSPropertyOp6
 70
     1
102
RTVSPropertyOp7
 70
     1
102
RTVSPropertyOp8
 70
     1
102
RTVSPropertyOp9
 70
     1
102
RTVSPropertyOp10
 70
     1
102
RTVSPropertyOp11
 70
     1
102
RTVSPropertyOp12
 70
     1
102
RTVSPropertyOp13
 70
     1
102
RTVSPropertyOp14
 70
     1
102
RTVSPropertyOp15
 70
     1
102
RTVSPropertyOp16
 70
     1
102
RTVSPropertyOp17
 70
     1
102
RTVSPropertyOp18
 70
     1
102
RTVSPropertyOp19
 70
     1
102
RTVSPropertyOp20
 70
     1
102
RTVSPropertyOp21
 70
     1
102
RTVSPropertyOp22
 70
     1
102
RTVSPropertyOp23
 70
     1
102
RTVSPropertyOp24
 70
     1
102
RTVSPropertyOp25
 70
     1
102
RTVSPropertyOp26
 70
     1
102
RTVSPropertyOp27
 70
     1
102
RTVSPropertyOp28
 70
     1
102
RTVSPropertyOp29
 70
     1
102
RTVSPropertyOp30
 70
     1
102
RTVSPropertyOp31
 70
     1
102
RTVSPropertyOp32
 70
     1
102
RTVSPropertyOp33
 70
     1
102
RTVSPropertyOp34
 70
     1
102
RTVSPropertyOp35
 70
     1
102
RTVSPropertyOp36
 70
     1
102
RTVSPropertyOp37
 70
     1
102
RTVSPropertyOp38
 70
     1
102
RTVSPropertyOp39
 70
     1
102
RTVSPropertyOp40
 70
     1
102
RTVSPropertyOp41
 70
     1
102
RTVSPropertyOp42
 70
     1
102
RTVSPropertyOp43
 70
     1
102
RTVSPropertyOp44
 70
     1
102
RTVSPropertyOp45
 70
     1
102
RTVSPropertyOp46
 70
     1
102
RTVSPropertyOp47
 70
     1
102
RTVSPropertyOp48
 70
     1
102
RTVSPropertyOp49
 70
     1
102
RTVSPropertyOp50
 70
     1
102
RTVSPropertyOp51
 70
     0
102
RTVSPropertyOp52
 70
     0
102
RTVSPropertyOp53
 70
     1
102
RTVSPropertyOp54
 70
     1
102
RTVSPropertyOp55
 70
     1
102
RTVSPropertyOp56
 70
     1
102
RTVSPropertyOp57
 70
     1
102
RTVSPropertyOp58
 70
     1
102
RTVSPropertyOp59
 70
     1
102
RTVSPropertyOp60
 70
     1
102
RTVSPropertyOp61
 70
     1
102
RTVSPropertyOp62
 70
     1
  0
XRECORD
  5
106A
102
{ACAD_REACTORS
330
1069
102
}
330
1069
100
AcDbXrecord
280
     1
102
RTVSPost2010Prop28
280
     0
102
RTVSPost2010PropOp28
 70
     1
102
RTVSPost2010Prop29
280
     1
102
RTVSPost2010PropOp29
 70
     1
102
RTVSPost2010Prop30
280
     1
102
RTVSPost2010PropOp30
 70
     1
102
RTVSPost2010Prop31
280
     0
102
RTVSPost2010PropOp31
 70
     1
102
RTVSPost2010Prop32
280
     0
102
RTVSPost2010PropOp32
 70
     1
102
RTVSPost2010Prop33
280
     0
102
RTVSPost2010PropOp33
 70
     1
102
RTVSPost2010Prop34
280
     0
102
RTVSPost2010PropOp34
 70
     1
102
RTVSPost2010Prop35
280
     0
102
RTVSPost2010PropOp35
 70
     1
102
RTVSPost2010Prop36
280
     0
102
RTVSPost2010PropOp36
 70
     1
102
RTVSPost2010Prop37
 90
       50
102
RTVSPost2010PropOp37
 70
     1
102
RTVSPost2010Prop38
140
0.0
102
RTVSPost2010PropOp38
 70
     1
102
RTVSPost2010Prop39
140
1.0
102
RTVSPost2010PropOp39
 70
     1
102
RTVSPost2010Prop40
 90
        0
102
RTVSPost2010PropOp40
 70
     1
102
RTVSPost2010Prop41ColorIndex
 90
       18
102
RTVSPost2010Prop41ColorRGB
 90
        0
102
RTVSPost2010PropOp41
 70
     1
102
RTVSPost2010Prop42
 90
       50
102
RTVSPost2010PropOp42
 70
     1
102
RTVSPost2010Prop43
 90
        3
102
RTVSPost2010PropOp43
 70
     1
102
RTVSPost2010Prop44ColorIndex
 90
        5
102
RTVSPost2010Prop44ColorRGB
 90
      255
102
RTVSPost2010PropOp44
 70
     1
102
RTVSPost2010Prop45
280
     0
102
RTVSPost2010PropOp45
 70
     1
102
RTVSPost2010Prop46
 90
       50
102
RTVSPost2010PropOp46
 70
     1
102
RTVSPost2010Prop47
 90
       50
102
RTVSPost2010PropOp47
 70
     1
102
RTVSPost2010Prop48
 90
       50
102
RTVSPost2010PropOp48
 70
     1
102
RTVSPost2010Prop49
280
     0
102
RTVSPost2010PropOp49
 70
     1
102
RTVSPost2010Prop50
 90
       50
102
RTVSPost2010PropOp50
 70
     1
102
RTVSPost2010Prop51ColorIndex
 90
      256
102
RTVSPost2010Prop51ColorRGB
 90
-16777216
102
RTVSPost2010PropOp51
 70
     0
102
RTVSPost2010Prop52
140
1.0
102
RTVSPost2010PropOp52
 70
     0
102
RTVSPost2010Prop53
 90
        2
102
RTVSPost2010PropOp53
 70
     1
102
RTVSPost2010Prop54
  1
strokes_ogs.tif
102
RTVSPost2010PropOp54
 70
     1
102
RTVSPost2010Prop55
280
     0
102
RTVSPost2010PropOp55
 70
     1
102
RTVSPost2010Prop56
140
1.0
102
RTVSPost2010PropOp56
 70
     1
102
RTVSPost2010Prop57
140
1.0
102
RTVSPost2010PropOp57
 70
     1
102
RTVSPropertyOp0
 70
     1
102
RTVSPropertyOp1
 70
     1
102
RTVSPropertyOp2
 70
     1
102
RTVSPropertyOp3
 70
     1
102
RTVSPropertyOp4
 70
     1
102
RTVSPropertyOp5
 70
     1
102
RTVSPropertyOp6
 70
     1
102
RTVSPropertyOp7
 70
     1
102
RTVSPropertyOp8
 70
     1
102
RTVSPropertyOp9
 70
     1
102
RTVSPropertyOp10
 70
     1
102
RTVSPropertyOp11
 70
     1
102
RTVSPropertyOp12
 70
     1
102
RTVSPropertyOp13
 70
     1
102
RTVSPropertyOp14
 70
     1
102
RTVSPropertyOp15
 70
     1
102
RTVSPropertyOp16
 70
     1
102
RTVSPropertyOp17
 70
     1
102
RTVSPropertyOp18
 70
     1
102
RTVSPropertyOp19
 70
     1
102
RTVSPropertyOp20
 70
     1
102
RTVSPropertyOp21
 70
     1
102
RTVSPropertyOp22
 70
     1
102
RTVSPropertyOp23
 70
     1
102
RTVSPropertyOp24
 70
     1
102
RTVSPropertyOp25
 70
     1
102
RTVSPropertyOp26
 70
     1
102
RTVSPropertyOp27
 70
     1
102
RTVSPropertyOp28
 70
     1
102
RTVSPropertyOp29
 70
     1
102
RTVSPropertyOp30
 70
     1
102
RTVSPropertyOp31
 70
     1
102
RTVSPropertyOp32
 70
     1
102
RTVSPropertyOp33
 70
     1
102
RTVSPropertyOp34
 70
     1
102
RTVSPropertyOp35
 70
     1
102
RTVSPropertyOp36
 70
     1
102
RTVSPropertyOp37
 70
     1
102
RTVSPropertyOp38
 70
     1
102
RTVSPropertyOp39
 70
     1
102
RTVSPropertyOp40
 70
     1
102
RTVSPropertyOp41
 70
     1
102
RTVSPropertyOp42
 70
     1
102
RTVSPropertyOp43
 70
     1
102
RTVSPropertyOp44
 70
     1
102
RTVSPropertyOp45
 70
     1
102
RTVSPropertyOp46
 70
     1
102
RTVSPropertyOp47
 70
     1
102
RTVSPropertyOp48
 70
     1
102
RTVSPropertyOp49
 70
     1
102
RTVSPropertyOp50
 70
     1
102
RTVSPropertyOp51
 70
     0
102
RTVSPropertyOp52
 70
     0
102
RTVSPropertyOp53
 70
     1
102
RTVSPropertyOp54
 70
     1
102
RTVSPropertyOp55
 70
     1
102
RTVSPropertyOp56
 70
     1
102
RTVSPropertyOp57
 70
     1
102
RTVSPropertyOp58
 70
     1
102
RTVSPropertyOp59
 70
     1
102
RTVSPropertyOp60
 70
     1
102
RTVSPropertyOp61
 70
     1
102
RTVSPropertyOp62
 70
     1
  0
XRECORD
  5
1072
102
{ACAD_REACTORS
330
1071
102
}
330
1071
100
AcDbXrecord
280
     1
102
RTVSPost2010Prop28
280
     0
102
RTVSPost2010PropOp28
 70
     1
102
RTVSPost2010Prop29
280
     1
102
RTVSPost2010PropOp29
 70
     1
102
RTVSPost2010Prop30
280
     1
102
RTVSPost2010PropOp30
 70
     1
102
RTVSPost2010Prop31
280
     0
102
RTVSPost2010PropOp31
 70
     1
102
RTVSPost2010Prop32
280
     0
102
RTVSPost2010PropOp32
 70
     1
102
RTVSPost2010Prop33
280
     0
102
RTVSPost2010PropOp33
 70
     1
102
RTVSPost2010Prop34
280
     0
102
RTVSPost2010PropOp34
 70
     1
102
RTVSPost2010Prop35
280
     0
102
RTVSPost2010PropOp35
 70
     1
102
RTVSPost2010Prop36
280
     0
102
RTVSPost2010PropOp36
 70
     1
102
RTVSPost2010Prop37
 90
       50
102
RTVSPost2010PropOp37
 70
     1
102
RTVSPost2010Prop38
140
0.0
102
RTVSPost2010PropOp38
 70
     1
102
RTVSPost2010Prop39
140
1.0
102
RTVSPost2010PropOp39
 70
     1
102
RTVSPost2010Prop40
 90
        0
102
RTVSPost2010PropOp40
 70
     1
102
RTVSPost2010Prop41ColorIndex
 90
       18
102
RTVSPost2010Prop41ColorRGB
 90
        0
102
RTVSPost2010PropOp41
 70
     1
102
RTVSPost2010Prop42
 90
       50
102
RTVSPost2010PropOp42
 70
     1
102
RTVSPost2010Prop43
 90
        3
102
RTVSPost2010PropOp43
 70
     1
102
RTVSPost2010Prop44ColorIndex
 90
        5
102
RTVSPost2010Prop44ColorRGB
 90
      255
102
RTVSPost2010PropOp44
 70
     1
102
RTVSPost2010Prop45
280
     0
102
RTVSPost2010PropOp45
 70
     1
102
RTVSPost2010Prop46
 90
       50
102
RTVSPost2010PropOp46
 70
     1
102
RTVSPost2010Prop47
 90
       50
102
RTVSPost2010PropOp47
 70
     1
102
RTVSPost2010Prop48
 90
       50
102
RTVSPost2010PropOp48
 70
     1
102
RTVSPost2010Prop49
280
     0
102
RTVSPost2010PropOp49
 70
     1
102
RTVSPost2010Prop50
 90
       50
102
RTVSPost2010PropOp50
 70
     1
102
RTVSPost2010Prop51ColorIndex
 90
      256
102
RTVSPost2010Prop51ColorRGB
 90
-16777216
102
RTVSPost2010PropOp51
 70
     0
102
RTVSPost2010Prop52
140
1.0
102
RTVSPost2010PropOp52
 70
     0
102
RTVSPost2010Prop53
 90
        2
102
RTVSPost2010PropOp53
 70
     1
102
RTVSPost2010Prop54
  1
strokes_ogs.tif
102
RTVSPost2010PropOp54
 70
     1
102
RTVSPost2010Prop55
280
     0
102
RTVSPost2010PropOp55
 70
     1
102
RTVSPost2010Prop56
140
1.0
102
RTVSPost2010PropOp56
 70
     1
102
RTVSPost2010Prop57
140
1.0
102
RTVSPost2010PropOp57
 70
     1
102
RTVSPropertyOp0
 70
     1
102
RTVSPropertyOp1
 70
     1
102
RTVSPropertyOp2
 70
     1
102
RTVSPropertyOp3
 70
     1
102
RTVSPropertyOp4
 70
     1
102
RTVSPropertyOp5
 70
     1
102
RTVSPropertyOp6
 70
     1
102
RTVSPropertyOp7
 70
     1
102
RTVSPropertyOp8
 70
     1
102
RTVSPropertyOp9
 70
     1
102
RTVSPropertyOp10
 70
     1
102
RTVSPropertyOp11
 70
     1
102
RTVSPropertyOp12
 70
     1
102
RTVSPropertyOp13
 70
     1
102
RTVSPropertyOp14
 70
     1
102
RTVSPropertyOp15
 70
     1
102
RTVSPropertyOp16
 70
     1
102
RTVSPropertyOp17
 70
     1
102
RTVSPropertyOp18
 70
     1
102
RTVSPropertyOp19
 70
     1
102
RTVSPropertyOp20
 70
     1
102
RTVSPropertyOp21
 70
     1
102
RTVSPropertyOp22
 70
     1
102
RTVSPropertyOp23
 70
     1
102
RTVSPropertyOp24
 70
     1
102
RTVSPropertyOp25
 70
     1
102
RTVSPropertyOp26
 70
     1
102
RTVSPropertyOp27
 70
     1
102
RTVSPropertyOp28
 70
     1
102
RTVSPropertyOp29
 70
     1
102
RTVSPropertyOp30
 70
     1
102
RTVSPropertyOp31
 70
     1
102
RTVSPropertyOp32
 70
     1
102
RTVSPropertyOp33
 70
     1
102
RTVSPropertyOp34
 70
     1
102
RTVSPropertyOp35
 70
     1
102
RTVSPropertyOp36
 70
     1
102
RTVSPropertyOp37
 70
     1
102
RTVSPropertyOp38
 70
     1
102
RTVSPropertyOp39
 70
     1
102
RTVSPropertyOp40
 70
     1
102
RTVSPropertyOp41
 70
     1
102
RTVSPropertyOp42
 70
     1
102
RTVSPropertyOp43
 70
     1
102
RTVSPropertyOp44
 70
     1
102
RTVSPropertyOp45
 70
     1
102
RTVSPropertyOp46
 70
     1
102
RTVSPropertyOp47
 70
     1
102
RTVSPropertyOp48
 70
     1
102
RTVSPropertyOp49
 70
     1
102
RTVSPropertyOp50
 70
     1
102
RTVSPropertyOp51
 70
     0
102
RTVSPropertyOp52
 70
     0
102
RTVSPropertyOp53
 70
     1
102
RTVSPropertyOp54
 70
     1
102
RTVSPropertyOp55
 70
     1
102
RTVSPropertyOp56
 70
     1
102
RTVSPropertyOp57
 70
     1
102
RTVSPropertyOp58
 70
     1
102
RTVSPropertyOp59
 70
     1
102
RTVSPropertyOp60
 70
     1
102
RTVSPropertyOp61
 70
     1
102
RTVSPropertyOp62
 70
     1
  0
XRECORD
  5
1064
102
{ACAD_REACTORS
330
1063
102
}
330
1063
100
AcDbXrecord
280
     1
102
RTVSPost2010Prop28
280
     0
102
RTVSPost2010PropOp28
 70
     1
102
RTVSPost2010Prop29
280
     1
102
RTVSPost2010PropOp29
 70
     1
102
RTVSPost2010Prop30
280
     1
102
RTVSPost2010PropOp30
 70
     1
102
RTVSPost2010Prop31
280
     0
102
RTVSPost2010PropOp31
 70
     1
102
RTVSPost2010Prop32
280
     0
102
RTVSPost2010PropOp32
 70
     1
102
RTVSPost2010Prop33
280
     0
102
RTVSPost2010PropOp33
 70
     1
102
RTVSPost2010Prop34
280
     0
102
RTVSPost2010PropOp34
 70
     1
102
RTVSPost2010Prop35
280
     0
102
RTVSPost2010PropOp35
 70
     1
102
RTVSPost2010Prop36
280
     0
102
RTVSPost2010PropOp36
 70
     1
102
RTVSPost2010Prop37
 90
       50
102
RTVSPost2010PropOp37
 70
     1
102
RTVSPost2010Prop38
140
0.0
102
RTVSPost2010PropOp38
 70
     1
102
RTVSPost2010Prop39
140
1.0
102
RTVSPost2010PropOp39
 70
     1
102
RTVSPost2010Prop40
 90
        0
102
RTVSPost2010PropOp40
 70
     1
102
RTVSPost2010Prop41ColorIndex
 90
       18
102
RTVSPost2010Prop41ColorRGB
 90
        0
102
RTVSPost2010PropOp41
 70
     1
102
RTVSPost2010Prop42
 90
       50
102
RTVSPost2010PropOp42
 70
     1
102
RTVSPost2010Prop43
 90
        3
102
RTVSPost2010PropOp43
 70
     1
102
RTVSPost2010Prop44ColorIndex
 90
        5
102
RTVSPost2010Prop44ColorRGB
 90
      255
102
RTVSPost2010PropOp44
 70
     1
102
RTVSPost2010Prop45
280
     0
102
RTVSPost2010PropOp45
 70
     1
102
RTVSPost2010Prop46
 90
       50
102
RTVSPost2010PropOp46
 70
     1
102
RTVSPost2010Prop47
 90
       50
102
RTVSPost2010PropOp47
 70
     1
102
RTVSPost2010Prop48
 90
       50
102
RTVSPost2010PropOp48
 70
     1
102
RTVSPost2010Prop49
280
     0
102
RTVSPost2010PropOp49
 70
     1
102
RTVSPost2010Prop50
 90
       50
102
RTVSPost2010PropOp50
 70
     1
102
RTVSPost2010Prop51ColorIndex
 90
      256
102
RTVSPost2010Prop51ColorRGB
 90
-16777216
102
RTVSPost2010PropOp51
 70
     0
102
RTVSPost2010Prop52
140
1.0
102
RTVSPost2010PropOp52
 70
     0
102
RTVSPost2010Prop53
 90
        2
102
RTVSPost2010PropOp53
 70
     1
102
RTVSPost2010Prop54
  1
strokes_ogs.tif
102
RTVSPost2010PropOp54
 70
     1
102
RTVSPost2010Prop55
280
     0
102
RTVSPost2010PropOp55
 70
     1
102
RTVSPost2010Prop56
140
1.0
102
RTVSPost2010PropOp56
 70
     1
102
RTVSPost2010Prop57
140
1.0
102
RTVSPost2010PropOp57
 70
     1
102
RTVSPropertyOp0
 70
     1
102
RTVSPropertyOp1
 70
     1
102
RTVSPropertyOp2
 70
     1
102
RTVSPropertyOp3
 70
     1
102
RTVSPropertyOp4
 70
     1
102
RTVSPropertyOp5
 70
     1
102
RTVSPropertyOp6
 70
     1
102
RTVSPropertyOp7
 70
     1
102
RTVSPropertyOp8
 70
     1
102
RTVSPropertyOp9
 70
     1
102
RTVSPropertyOp10
 70
     1
102
RTVSPropertyOp11
 70
     1
102
RTVSPropertyOp12
 70
     1
102
RTVSPropertyOp13
 70
     1
102
RTVSPropertyOp14
 70
     1
102
RTVSPropertyOp15
 70
     1
102
RTVSPropertyOp16
 70
     1
102
RTVSPropertyOp17
 70
     1
102
RTVSPropertyOp18
 70
     1
102
RTVSPropertyOp19
 70
     1
102
RTVSPropertyOp20
 70
     1
102
RTVSPropertyOp21
 70
     1
102
RTVSPropertyOp22
 70
     1
102
RTVSPropertyOp23
 70
     1
102
RTVSPropertyOp24
 70
     1
102
RTVSPropertyOp25
 70
     1
102
RTVSPropertyOp26
 70
     1
102
RTVSPropertyOp27
 70
     1
102
RTVSPropertyOp28
 70
     1
102
RTVSPropertyOp29
 70
     1
102
RTVSPropertyOp30
 70
     1
102
RTVSPropertyOp31
 70
     1
102
RTVSPropertyOp32
 70
     1
102
RTVSPropertyOp33
 70
     1
102
RTVSPropertyOp34
 70
     1
102
RTVSPropertyOp35
 70
     1
102
RTVSPropertyOp36
 70
     1
102
RTVSPropertyOp37
 70
     1
102
RTVSPropertyOp38
 70
     1
102
RTVSPropertyOp39
 70
     1
102
RTVSPropertyOp40
 70
     1
102
RTVSPropertyOp41
 70
     1
102
RTVSPropertyOp42
 70
     1
102
RTVSPropertyOp43
 70
     1
102
RTVSPropertyOp44
 70
     1
102
RTVSPropertyOp45
 70
     1
102
RTVSPropertyOp46
 70
     1
102
RTVSPropertyOp47
 70
     1
102
RTVSPropertyOp48
 70
     1
102
RTVSPropertyOp49
 70
     1
102
RTVSPropertyOp50
 70
     1
102
RTVSPropertyOp51
 70
     0
102
RTVSPropertyOp52
 70
     0
102
RTVSPropertyOp53
 70
     1
102
RTVSPropertyOp54
 70
     1
102
RTVSPropertyOp55
 70
     1
102
RTVSPropertyOp56
 70
     1
102
RTVSPropertyOp57
 70
     1
102
RTVSPropertyOp58
 70
     1
102
RTVSPropertyOp59
 70
     1
102
RTVSPropertyOp60
 70
     1
102
RTVSPropertyOp61
 70
     1
102
RTVSPropertyOp62
 70
     1
  0
XRECORD
  5
1068
102
{ACAD_REACTORS
330
1067
102
}
330
1067
100
AcDbXrecord
280
     1
102
RTVSPost2010Prop28
280
     0
102
RTVSPost2010PropOp28
 70
     1
102
RTVSPost2010Prop29
280
     1
102
RTVSPost2010PropOp29
 70
     1
102
RTVSPost2010Prop30
280
     1
102
RTVSPost2010PropOp30
 70
     1
102
RTVSPost2010Prop31
280
     0
102
RTVSPost2010PropOp31
 70
     1
102
RTVSPost2010Prop32
280
     0
102
RTVSPost2010PropOp32
 70
     1
102
RTVSPost2010Prop33
280
     0
102
RTVSPost2010PropOp33
 70
     1
102
RTVSPost2010Prop34
280
     0
102
RTVSPost2010PropOp34
 70
     1
102
RTVSPost2010Prop35
280
     0
102
RTVSPost2010PropOp35
 70
     1
102
RTVSPost2010Prop36
280
     0
102
RTVSPost2010PropOp36
 70
     1
102
RTVSPost2010Prop37
 90
       50
102
RTVSPost2010PropOp37
 70
     1
102
RTVSPost2010Prop38
140
0.0
102
RTVSPost2010PropOp38
 70
     1
102
RTVSPost2010Prop39
140
1.0
102
RTVSPost2010PropOp39
 70
     1
102
RTVSPost2010Prop40
 90
        0
102
RTVSPost2010PropOp40
 70
     1
102
RTVSPost2010Prop41ColorIndex
 90
       18
102
RTVSPost2010Prop41ColorRGB
 90
        0
102
RTVSPost2010PropOp41
 70
     1
102
RTVSPost2010Prop42
 90
       50
102
RTVSPost2010PropOp42
 70
     1
102
RTVSPost2010Prop43
 90
        3
102
RTVSPost2010PropOp43
 70
     1
102
RTVSPost2010Prop44ColorIndex
 90
        5
102
RTVSPost2010Prop44ColorRGB
 90
      255
102
RTVSPost2010PropOp44
 70
     1
102
RTVSPost2010Prop45
280
     0
102
RTVSPost2010PropOp45
 70
     1
102
RTVSPost2010Prop46
 90
       50
102
RTVSPost2010PropOp46
 70
     1
102
RTVSPost2010Prop47
 90
       50
102
RTVSPost2010PropOp47
 70
     1
102
RTVSPost2010Prop48
 90
       50
102
RTVSPost2010PropOp48
 70
     1
102
RTVSPost2010Prop49
280
     0
102
RTVSPost2010PropOp49
 70
     1
102
RTVSPost2010Prop50
 90
       50
102
RTVSPost2010PropOp50
 70
     1
102
RTVSPost2010Prop51ColorIndex
 90
      256
102
RTVSPost2010Prop51ColorRGB
 90
-16777216
102
RTVSPost2010PropOp51
 70
     0
102
RTVSPost2010Prop52
140
1.0
102
RTVSPost2010PropOp52
 70
     0
102
RTVSPost2010Prop53
 90
        2
102
RTVSPost2010PropOp53
 70
     1
102
RTVSPost2010Prop54
  1
strokes_ogs.tif
102
RTVSPost2010PropOp54
 70
     1
102
RTVSPost2010Prop55
280
     0
102
RTVSPost2010PropOp55
 70
     1
102
RTVSPost2010Prop56
140
1.0
102
RTVSPost2010PropOp56
 70
     1
102
RTVSPost2010Prop57
140
1.0
102
RTVSPost2010PropOp57
 70
     1
102
RTVSPropertyOp0
 70
     1
102
RTVSPropertyOp1
 70
     1
102
RTVSPropertyOp2
 70
     1
102
RTVSPropertyOp3
 70
     1
102
RTVSPropertyOp4
 70
     1
102
RTVSPropertyOp5
 70
     1
102
RTVSPropertyOp6
 70
     1
102
RTVSPropertyOp7
 70
     1
102
RTVSPropertyOp8
 70
     1
102
RTVSPropertyOp9
 70
     1
102
RTVSPropertyOp10
 70
     1
102
RTVSPropertyOp11
 70
     1
102
RTVSPropertyOp12
 70
     1
102
RTVSPropertyOp13
 70
     1
102
RTVSPropertyOp14
 70
     1
102
RTVSPropertyOp15
 70
     1
102
RTVSPropertyOp16
 70
     1
102
RTVSPropertyOp17
 70
     1
102
RTVSPropertyOp18
 70
     1
102
RTVSPropertyOp19
 70
     1
102
RTVSPropertyOp20
 70
     1
102
RTVSPropertyOp21
 70
     1
102
RTVSPropertyOp22
 70
     1
102
RTVSPropertyOp23
 70
     1
102
RTVSPropertyOp24
 70
     1
102
RTVSPropertyOp25
 70
     1
102
RTVSPropertyOp26
 70
     1
102
RTVSPropertyOp27
 70
     1
102
RTVSPropertyOp28
 70
     1
102
RTVSPropertyOp29
 70
     1
102
RTVSPropertyOp30
 70
     1
102
RTVSPropertyOp31
 70
     1
102
RTVSPropertyOp32
 70
     1
102
RTVSPropertyOp33
 70
     1
102
RTVSPropertyOp34
 70
     1
102
RTVSPropertyOp35
 70
     1
102
RTVSPropertyOp36
 70
     1
102
RTVSPropertyOp37
 70
     1
102
RTVSPropertyOp38
 70
     1
102
RTVSPropertyOp39
 70
     1
102
RTVSPropertyOp40
 70
     1
102
RTVSPropertyOp41
 70
     1
102
RTVSPropertyOp42
 70
     1
102
RTVSPropertyOp43
 70
     1
102
RTVSPropertyOp44
 70
     1
102
RTVSPropertyOp45
 70
     1
102
RTVSPropertyOp46
 70
     1
102
RTVSPropertyOp47
 70
     1
102
RTVSPropertyOp48
 70
     1
102
RTVSPropertyOp49
 70
     1
102
RTVSPropertyOp50
 70
     1
102
RTVSPropertyOp51
 70
     0
102
RTVSPropertyOp52
 70
     0
102
RTVSPropertyOp53
 70
     1
102
RTVSPropertyOp54
 70
     1
102
RTVSPropertyOp55
 70
     1
102
RTVSPropertyOp56
 70
     1
102
RTVSPropertyOp57
 70
     1
102
RTVSPropertyOp58
 70
     1
102
RTVSPropertyOp59
 70
     1
102
RTVSPropertyOp60
 70
     1
102
RTVSPropertyOp61
 70
     1
102
RTVSPropertyOp62
 70
     1
  0
XRECORD
  5
1090
102
{ACAD_REACTORS
330
108F
102
}
330
108F
100
AcDbXrecord
280
     1
102
RTVSPost2010Prop28
280
     0
102
RTVSPost2010PropOp28
 70
     0
102
RTVSPost2010Prop29
280
     1
102
RTVSPost2010PropOp29
 70
     0
102
RTVSPost2010Prop30
280
     1
102
RTVSPost2010PropOp30
 70
     0
102
RTVSPost2010Prop31
280
     0
102
RTVSPost2010PropOp31
 70
     0
102
RTVSPost2010Prop32
280
     0
102
RTVSPost2010PropOp32
 70
     0
102
RTVSPost2010Prop33
280
     0
102
RTVSPost2010PropOp33
 70
     0
102
RTVSPost2010Prop34
280
     0
102
RTVSPost2010PropOp34
 70
     0
102
RTVSPost2010Prop35
280
     0
102
RTVSPost2010PropOp35
 70
     0
102
RTVSPost2010Prop36
280
     0
102
RTVSPost2010PropOp36
 70
     0
102
RTVSPost2010Prop37
 90
       50
102
RTVSPost2010PropOp37
 70
     0
102
RTVSPost2010Prop38
140
0.0
102
RTVSPost2010PropOp38
 70
     0
102
RTVSPost2010Prop39
140
1.0
102
RTVSPost2010PropOp39
 70
     0
102
RTVSPost2010Prop40
 90
        0
102
RTVSPost2010PropOp40
 70
     0
102
RTVSPost2010Prop41ColorIndex
 90
       18
102
RTVSPost2010Prop41ColorRGB
 90
        0
102
RTVSPost2010PropOp41
 70
     0
102
RTVSPost2010Prop42
 90
       50
102
RTVSPost2010PropOp42
 70
     0
102
RTVSPost2010Prop43
 90
        3
102
RTVSPost2010PropOp43
 70
     0
102
RTVSPost2010Prop44ColorIndex
 90
        5
102
RTVSPost2010Prop44ColorRGB
 90
      255
102
RTVSPost2010PropOp44
 70
     0
102
RTVSPost2010Prop45
280
     0
102
RTVSPost2010PropOp45
 70
     0
102
RTVSPost2010Prop46
 90
       50
102
RTVSPost2010PropOp46
 70
     0
102
RTVSPost2010Prop47
 90
       50
102
RTVSPost2010PropOp47
 70
     0
102
RTVSPost2010Prop48
 90
       50
102
RTVSPost2010PropOp48
 70
     0
102
RTVSPost2010Prop49
280
     0
102
RTVSPost2010PropOp49
 70
     0
102
RTVSPost2010Prop50
 90
       50
102
RTVSPost2010PropOp50
 70
     0
102
RTVSPost2010Prop51ColorIndex
 90
      256
102
RTVSPost2010Prop51ColorRGB
 90
-16777216
102
RTVSPost2010PropOp51
 70
     0
102
RTVSPost2010Prop52
140
1.0
102
RTVSPost2010PropOp52
 70
     0
102
RTVSPost2010Prop53
 90
        2
102
RTVSPost2010PropOp53
 70
     0
102
RTVSPost2010Prop54
  1
strokes_ogs.tif
102
RTVSPost2010PropOp54
 70
     0
102
RTVSPost2010Prop55
280
     0
102
RTVSPost2010PropOp55
 70
     0
102
RTVSPost2010Prop56
140
1.0
102
RTVSPost2010PropOp56
 70
     0
102
RTVSPost2010Prop57
140
1.0
102
RTVSPost2010PropOp57
 70
     0
102
RTVSPropertyOp0
 70
     0
102
RTVSPropertyOp1
 70
     0
102
RTVSPropertyOp2
 70
     0
102
RTVSPropertyOp3
 70
     0
102
RTVSPropertyOp4
 70
     0
102
RTVSPropertyOp5
 70
     0
102
RTVSPropertyOp6
 70
     0
102
RTVSPropertyOp7
 70
     0
102
RTVSPropertyOp8
 70
     0
102
RTVSPropertyOp9
 70
     0
102
RTVSPropertyOp10
 70
     0
102
RTVSPropertyOp11
 70
     0
102
RTVSPropertyOp12
 70
     0
102
RTVSPropertyOp13
 70
     0
102
RTVSPropertyOp14
 70
     2
102
RTVSPropertyOp15
 70
     0
102
RTVSPropertyOp16
 70
     0
102
RTVSPropertyOp17
 70
     0
102
RTVSPropertyOp18
 70
     0
102
RTVSPropertyOp19
 70
     0
102
RTVSPropertyOp20
 70
     0
102
RTVSPropertyOp21
 70
     0
102
RTVSPropertyOp22
 70
     0
102
RTVSPropertyOp23
 70
     0
102
RTVSPropertyOp24
 70
     0
102
RTVSPropertyOp25
 70
     0
102
RTVSPropertyOp26
 70
     0
102
RTVSPropertyOp27
 70
     0
102
RTVSPropertyOp28
 70
     0
102
RTVSPropertyOp29
 70
     0
102
RTVSPropertyOp30
 70
     0
102
RTVSPropertyOp31
 70
     0
102
RTVSPropertyOp32
 70
     0
102
RTVSPropertyOp33
 70
     0
102
RTVSPropertyOp34
 70
     0
102
RTVSPropertyOp35
 70
     0
102
RTVSPropertyOp36
 70
     0
102
RTVSPropertyOp37
 70
     0
102
RTVSPropertyOp38
 70
     0
102
RTVSPropertyOp39
 70
     0
102
RTVSPropertyOp40
 70
     0
102
RTVSPropertyOp41
 70
     0
102
RTVSPropertyOp42
 70
     0
102
RTVSPropertyOp43
 70
     0
102
RTVSPropertyOp44
 70
     0
102
RTVSPropertyOp45
 70
     0
102
RTVSPropertyOp46
 70
     0
102
RTVSPropertyOp47
 70
     0
102
RTVSPropertyOp48
 70
     0
102
RTVSPropertyOp49
 70
     0
102
RTVSPropertyOp50
 70
     0
102
RTVSPropertyOp51
 70
     0
102
RTVSPropertyOp52
 70
     0
102
RTVSPropertyOp53
 70
     0
102
RTVSPropertyOp54
 70
     0
102
RTVSPropertyOp55
 70
     0
102
RTVSPropertyOp56
 70
     0
102
RTVSPropertyOp57
 70
     0
102
RTVSPropertyOp58
 70
     0
102
RTVSPropertyOp59
 70
     0
102
RTVSPropertyOp60
 70
     0
102
RTVSPropertyOp61
 70
     0
102
RTVSPropertyOp62
 70
     0
  0
XRECORD
  5
1070
102
{ACAD_REACTORS
330
106F
102
}
330
106F
100
AcDbXrecord
280
     1
102
RTVSPost2010Prop28
280
     0
102
RTVSPost2010PropOp28
 70
     1
102
RTVSPost2010Prop29
280
     1
102
RTVSPost2010PropOp29
 70
     1
102
RTVSPost2010Prop30
280
     1
102
RTVSPost2010PropOp30
 70
     1
102
RTVSPost2010Prop31
280
     0
102
RTVSPost2010PropOp31
 70
     1
102
RTVSPost2010Prop32
280
     0
102
RTVSPost2010PropOp32
 70
     1
102
RTVSPost2010Prop33
280
     0
102
RTVSPost2010PropOp33
 70
     1
102
RTVSPost2010Prop34
280
     0
102
RTVSPost2010PropOp34
 70
     1
102
RTVSPost2010Prop35
280
     0
102
RTVSPost2010PropOp35
 70
     1
102
RTVSPost2010Prop36
280
     0
102
RTVSPost2010PropOp36
 70
     1
102
RTVSPost2010Prop37
 90
       50
102
RTVSPost2010PropOp37
 70
     1
102
RTVSPost2010Prop38
140
0.0
102
RTVSPost2010PropOp38
 70
     1
102
RTVSPost2010Prop39
140
1.0
102
RTVSPost2010PropOp39
 70
     1
102
RTVSPost2010Prop40
 90
        0
102
RTVSPost2010PropOp40
 70
     1
102
RTVSPost2010Prop41ColorIndex
 90
       18
102
RTVSPost2010Prop41ColorRGB
 90
        0
102
RTVSPost2010PropOp41
 70
     1
102
RTVSPost2010Prop42
 90
       50
102
RTVSPost2010PropOp42
 70
     1
102
RTVSPost2010Prop43
 90
        3
102
RTVSPost2010PropOp43
 70
     1
102
RTVSPost2010Prop44ColorIndex
 90
        5
102
RTVSPost2010Prop44ColorRGB
 90
      255
102
RTVSPost2010PropOp44
 70
     1
102
RTVSPost2010Prop45
280
     0
102
RTVSPost2010PropOp45
 70
     1
102
RTVSPost2010Prop46
 90
       50
102
RTVSPost2010PropOp46
 70
     1
102
RTVSPost2010Prop47
 90
       50
102
RTVSPost2010PropOp47
 70
     1
102
RTVSPost2010Prop48
 90
       50
102
RTVSPost2010PropOp48
 70
     1
102
RTVSPost2010Prop49
280
     0
102
RTVSPost2010PropOp49
 70
     1
102
RTVSPost2010Prop50
 90
       50
102
RTVSPost2010PropOp50
 70
     1
102
RTVSPost2010Prop51ColorIndex
 90
      256
102
RTVSPost2010Prop51ColorRGB
 90
-16777216
102
RTVSPost2010PropOp51
 70
     0
102
RTVSPost2010Prop52
140
1.0
102
RTVSPost2010PropOp52
 70
     0
102
RTVSPost2010Prop53
 90
        2
102
RTVSPost2010PropOp53
 70
     1
102
RTVSPost2010Prop54
  1
strokes_ogs.tif
102
RTVSPost2010PropOp54
 70
     1
102
RTVSPost2010Prop55
280
     0
102
RTVSPost2010PropOp55
 70
     1
102
RTVSPost2010Prop56
140
1.0
102
RTVSPost2010PropOp56
 70
     1
102
RTVSPost2010Prop57
140
1.0
102
RTVSPost2010PropOp57
 70
     1
102
RTVSPropertyOp0
 70
     1
102
RTVSPropertyOp1
 70
     1
102
RTVSPropertyOp2
 70
     1
102
RTVSPropertyOp3
 70
     1
102
RTVSPropertyOp4
 70
     1
102
RTVSPropertyOp5
 70
     1
102
RTVSPropertyOp6
 70
     1
102
RTVSPropertyOp7
 70
     1
102
RTVSPropertyOp8
 70
     1
102
RTVSPropertyOp9
 70
     1
102
RTVSPropertyOp10
 70
     1
102
RTVSPropertyOp11
 70
     1
102
RTVSPropertyOp12
 70
     1
102
RTVSPropertyOp13
 70
     1
102
RTVSPropertyOp14
 70
     1
102
RTVSPropertyOp15
 70
     1
102
RTVSPropertyOp16
 70
     1
102
RTVSPropertyOp17
 70
     1
102
RTVSPropertyOp18
 70
     1
102
RTVSPropertyOp19
 70
     1
102
RTVSPropertyOp20
 70
     1
102
RTVSPropertyOp21
 70
     1
102
RTVSPropertyOp22
 70
     1
102
RTVSPropertyOp23
 70
     1
102
RTVSPropertyOp24
 70
     1
102
RTVSPropertyOp25
 70
     1
102
RTVSPropertyOp26
 70
     1
102
RTVSPropertyOp27
 70
     1
102
RTVSPropertyOp28
 70
     1
102
RTVSPropertyOp29
 70
     1
102
RTVSPropertyOp30
 70
     1
102
RTVSPropertyOp31
 70
     1
102
RTVSPropertyOp32
 70
     1
102
RTVSPropertyOp33
 70
     1
102
RTVSPropertyOp34
 70
     1
102
RTVSPropertyOp35
 70
     1
102
RTVSPropertyOp36
 70
     1
102
RTVSPropertyOp37
 70
     1
102
RTVSPropertyOp38
 70
     1
102
RTVSPropertyOp39
 70
     1
102
RTVSPropertyOp40
 70
     1
102
RTVSPropertyOp41
 70
     1
102
RTVSPropertyOp42
 70
     1
102
RTVSPropertyOp43
 70
     1
102
RTVSPropertyOp44
 70
     1
102
RTVSPropertyOp45
 70
     1
102
RTVSPropertyOp46
 70
     1
102
RTVSPropertyOp47
 70
     1
102
RTVSPropertyOp48
 70
     1
102
RTVSPropertyOp49
 70
     1
102
RTVSPropertyOp50
 70
     1
102
RTVSPropertyOp51
 70
     0
102
RTVSPropertyOp52
 70
     0
102
RTVSPropertyOp53
 70
     1
102
RTVSPropertyOp54
 70
     1
102
RTVSPropertyOp55
 70
     1
102
RTVSPropertyOp56
 70
     1
102
RTVSPropertyOp57
 70
     1
102
RTVSPropertyOp58
 70
     1
102
RTVSPropertyOp59
 70
     1
102
RTVSPropertyOp60
 70
     1
102
RTVSPropertyOp61
 70
     1
102
RTVSPropertyOp62
 70
     1
  0
XRECORD
  5
1054
102
{ACAD_REACTORS
330
1053
102
}
330
1053
100
AcDbXrecord
280
     1
102
RTVSPost2010Prop28
280
     0
102
RTVSPost2010PropOp28
 70
     1
102
RTVSPost2010Prop29
280
     1
102
RTVSPost2010PropOp29
 70
     1
102
RTVSPost2010Prop30
280
     1
102
RTVSPost2010PropOp30
 70
     1
102
RTVSPost2010Prop31
280
     0
102
RTVSPost2010PropOp31
 70
     1
102
RTVSPost2010Prop32
280
     0
102
RTVSPost2010PropOp32
 70
     1
102
RTVSPost2010Prop33
280
     0
102
RTVSPost2010PropOp33
 70
     1
102
RTVSPost2010Prop34
280
     0
102
RTVSPost2010PropOp34
 70
     1
102
RTVSPost2010Prop35
280
     0
102
RTVSPost2010PropOp35
 70
     1
102
RTVSPost2010Prop36
280
     0
102
RTVSPost2010PropOp36
 70
     1
102
RTVSPost2010Prop37
 90
       50
102
RTVSPost2010PropOp37
 70
     1
102
RTVSPost2010Prop38
140
0.0
102
RTVSPost2010PropOp38
 70
     1
102
RTVSPost2010Prop39
140
1.0
102
RTVSPost2010PropOp39
 70
     1
102
RTVSPost2010Prop40
 90
        0
102
RTVSPost2010PropOp40
 70
     1
102
RTVSPost2010Prop41ColorIndex
 90
       18
102
RTVSPost2010Prop41ColorRGB
 90
        0
102
RTVSPost2010PropOp41
 70
     1
102
RTVSPost2010Prop42
 90
       50
102
RTVSPost2010PropOp42
 70
     1
102
RTVSPost2010Prop43
 90
        3
102
RTVSPost2010PropOp43
 70
     1
102
RTVSPost2010Prop44ColorIndex
 90
        5
102
RTVSPost2010Prop44ColorRGB
 90
      255
102
RTVSPost2010PropOp44
 70
     1
102
RTVSPost2010Prop45
280
     0
102
RTVSPost2010PropOp45
 70
     1
102
RTVSPost2010Prop46
 90
       50
102
RTVSPost2010PropOp46
 70
     1
102
RTVSPost2010Prop47
 90
       50
102
RTVSPost2010PropOp47
 70
     1
102
RTVSPost2010Prop48
 90
       50
102
RTVSPost2010PropOp48
 70
     1
102
RTVSPost2010Prop49
280
     0
102
RTVSPost2010PropOp49
 70
     1
102
RTVSPost2010Prop50
 90
       50
102
RTVSPost2010PropOp50
 70
     1
102
RTVSPost2010Prop51ColorIndex
 90
      256
102
RTVSPost2010Prop51ColorRGB
 90
-16777216
102
RTVSPost2010PropOp51
 70
     0
102
RTVSPost2010Prop52
140
1.0
102
RTVSPost2010PropOp52
 70
     0
102
RTVSPost2010Prop53
 90
        2
102
RTVSPost2010PropOp53
 70
     1
102
RTVSPost2010Prop54
  1
strokes_ogs.tif
102
RTVSPost2010PropOp54
 70
     1
102
RTVSPost2010Prop55
280
     0
102
RTVSPost2010PropOp55
 70
     1
102
RTVSPost2010Prop56
140
1.0
102
RTVSPost2010PropOp56
 70
     1
102
RTVSPost2010Prop57
140
1.0
102
RTVSPost2010PropOp57
 70
     1
102
RTVSPropertyOp0
 70
     1
102
RTVSPropertyOp1
 70
     1
102
RTVSPropertyOp2
 70
     1
102
RTVSPropertyOp3
 70
     1
102
RTVSPropertyOp4
 70
     1
102
RTVSPropertyOp5
 70
     1
102
RTVSPropertyOp6
 70
     1
102
RTVSPropertyOp7
 70
     1
102
RTVSPropertyOp8
 70
     1
102
RTVSPropertyOp9
 70
     1
102
RTVSPropertyOp10
 70
     1
102
RTVSPropertyOp11
 70
     1
102
RTVSPropertyOp12
 70
     1
102
RTVSPropertyOp13
 70
     1
102
RTVSPropertyOp14
 70
     1
102
RTVSPropertyOp15
 70
     1
102
RTVSPropertyOp16
 70
     1
102
RTVSPropertyOp17
 70
     1
102
RTVSPropertyOp18
 70
     1
102
RTVSPropertyOp19
 70
     1
102
RTVSPropertyOp20
 70
     1
102
RTVSPropertyOp21
 70
     1
102
RTVSPropertyOp22
 70
     1
102
RTVSPropertyOp23
 70
     1
102
RTVSPropertyOp24
 70
     1
102
RTVSPropertyOp25
 70
     1
102
RTVSPropertyOp26
 70
     1
102
RTVSPropertyOp27
 70
     1
102
RTVSPropertyOp28
 70
     1
102
RTVSPropertyOp29
 70
     1
102
RTVSPropertyOp30
 70
     1
102
RTVSPropertyOp31
 70
     1
102
RTVSPropertyOp32
 70
     1
102
RTVSPropertyOp33
 70
     1
102
RTVSPropertyOp34
 70
     1
102
RTVSPropertyOp35
 70
     1
102
RTVSPropertyOp36
 70
     1
102
RTVSPropertyOp37
 70
     1
102
RTVSPropertyOp38
 70
     1
102
RTVSPropertyOp39
 70
     1
102
RTVSPropertyOp40
 70
     1
102
RTVSPropertyOp41
 70
     1
102
RTVSPropertyOp42
 70
     1
102
RTVSPropertyOp43
 70
     1
102
RTVSPropertyOp44
 70
     1
102
RTVSPropertyOp45
 70
     1
102
RTVSPropertyOp46
 70
     1
102
RTVSPropertyOp47
 70
     1
102
RTVSPropertyOp48
 70
     1
102
RTVSPropertyOp49
 70
     1
102
RTVSPropertyOp50
 70
     1
102
RTVSPropertyOp51
 70
     0
102
RTVSPropertyOp52
 70
     0
102
RTVSPropertyOp53
 70
     1
102
RTVSPropertyOp54
 70
     1
102
RTVSPropertyOp55
 70
     1
102
RTVSPropertyOp56
 70
     1
102
RTVSPropertyOp57
 70
     1
102
RTVSPropertyOp58
 70
     1
102
RTVSPropertyOp59
 70
     1
102
RTVSPropertyOp60
 70
     1
102
RTVSPropertyOp61
 70
     1
102
RTVSPropertyOp62
 70
     1
  0
XRECORD
  5
1056
102
{ACAD_REACTORS
330
1055
102
}
330
1055
100
AcDbXrecord
280
     1
102
RTVSPost2010Prop28
280
     0
102
RTVSPost2010PropOp28
 70
     1
102
RTVSPost2010Prop29
280
     1
102
RTVSPost2010PropOp29
 70
     1
102
RTVSPost2010Prop30
280
     1
102
RTVSPost2010PropOp30
 70
     1
102
RTVSPost2010Prop31
280
     0
102
RTVSPost2010PropOp31
 70
     1
102
RTVSPost2010Prop32
280
     0
102
RTVSPost2010PropOp32
 70
     1
102
RTVSPost2010Prop33
280
     0
102
RTVSPost2010PropOp33
 70
     1
102
RTVSPost2010Prop34
280
     0
102
RTVSPost2010PropOp34
 70
     1
102
RTVSPost2010Prop35
280
     0
102
RTVSPost2010PropOp35
 70
     1
102
RTVSPost2010Prop36
280
     0
102
RTVSPost2010PropOp36
 70
     1
102
RTVSPost2010Prop37
 90
       50
102
RTVSPost2010PropOp37
 70
     1
102
RTVSPost2010Prop38
140
0.0
102
RTVSPost2010PropOp38
 70
     1
102
RTVSPost2010Prop39
140
1.0
102
RTVSPost2010PropOp39
 70
     1
102
RTVSPost2010Prop40
 90
        0
102
RTVSPost2010PropOp40
 70
     1
102
RTVSPost2010Prop41ColorIndex
 90
       18
102
RTVSPost2010Prop41ColorRGB
 90
        0
102
RTVSPost2010PropOp41
 70
     1
102
RTVSPost2010Prop42
 90
       50
102
RTVSPost2010PropOp42
 70
     1
102
RTVSPost2010Prop43
 90
        3
102
RTVSPost2010PropOp43
 70
     1
102
RTVSPost2010Prop44ColorIndex
 90
        5
102
RTVSPost2010Prop44ColorRGB
 90
      255
102
RTVSPost2010PropOp44
 70
     1
102
RTVSPost2010Prop45
280
     0
102
RTVSPost2010PropOp45
 70
     1
102
RTVSPost2010Prop46
 90
       50
102
RTVSPost2010PropOp46
 70
     1
102
RTVSPost2010Prop47
 90
       50
102
RTVSPost2010PropOp47
 70
     1
102
RTVSPost2010Prop48
 90
       50
102
RTVSPost2010PropOp48
 70
     1
102
RTVSPost2010Prop49
280
     0
102
RTVSPost2010PropOp49
 70
     1
102
RTVSPost2010Prop50
 90
       50
102
RTVSPost2010PropOp50
 70
     1
102
RTVSPost2010Prop51ColorIndex
 90
      256
102
RTVSPost2010Prop51ColorRGB
 90
-16777216
102
RTVSPost2010PropOp51
 70
     0
102
RTVSPost2010Prop52
140
1.0
102
RTVSPost2010PropOp52
 70
     0
102
RTVSPost2010Prop53
 90
        2
102
RTVSPost2010PropOp53
 70
     1
102
RTVSPost2010Prop54
  1
strokes_ogs.tif
102
RTVSPost2010PropOp54
 70
     1
102
RTVSPost2010Prop55
280
     0
102
RTVSPost2010PropOp55
 70
     1
102
RTVSPost2010Prop56
140
1.0
102
RTVSPost2010PropOp56
 70
     1
102
RTVSPost2010Prop57
140
1.0
102
RTVSPost2010PropOp57
 70
     1
102
RTVSPropertyOp0
 70
     1
102
RTVSPropertyOp1
 70
     1
102
RTVSPropertyOp2
 70
     1
102
RTVSPropertyOp3
 70
     1
102
RTVSPropertyOp4
 70
     1
102
RTVSPropertyOp5
 70
     1
102
RTVSPropertyOp6
 70
     1
102
RTVSPropertyOp7
 70
     1
102
RTVSPropertyOp8
 70
     1
102
RTVSPropertyOp9
 70
     1
102
RTVSPropertyOp10
 70
     1
102
RTVSPropertyOp11
 70
     1
102
RTVSPropertyOp12
 70
     1
102
RTVSPropertyOp13
 70
     1
102
RTVSPropertyOp14
 70
     1
102
RTVSPropertyOp15
 70
     1
102
RTVSPropertyOp16
 70
     1
102
RTVSPropertyOp17
 70
     1
102
RTVSPropertyOp18
 70
     1
102
RTVSPropertyOp19
 70
     1
102
RTVSPropertyOp20
 70
     1
102
RTVSPropertyOp21
 70
     1
102
RTVSPropertyOp22
 70
     1
102
RTVSPropertyOp23
 70
     1
102
RTVSPropertyOp24
 70
     1
102
RTVSPropertyOp25
 70
     1
102
RTVSPropertyOp26
 70
     1
102
RTVSPropertyOp27
 70
     1
102
RTVSPropertyOp28
 70
     1
102
RTVSPropertyOp29
 70
     1
102
RTVSPropertyOp30
 70
     1
102
RTVSPropertyOp31
 70
     1
102
RTVSPropertyOp32
 70
     1
102
RTVSPropertyOp33
 70
     1
102
RTVSPropertyOp34
 70
     1
102
RTVSPropertyOp35
 70
     1
102
RTVSPropertyOp36
 70
     1
102
RTVSPropertyOp37
 70
     1
102
RTVSPropertyOp38
 70
     1
102
RTVSPropertyOp39
 70
     1
102
RTVSPropertyOp40
 70
     1
102
RTVSPropertyOp41
 70
     1
102
RTVSPropertyOp42
 70
     1
102
RTVSPropertyOp43
 70
     1
102
RTVSPropertyOp44
 70
     1
102
RTVSPropertyOp45
 70
     1
102
RTVSPropertyOp46
 70
     1
102
RTVSPropertyOp47
 70
     1
102
RTVSPropertyOp48
 70
     1
102
RTVSPropertyOp49
 70
     1
102
RTVSPropertyOp50
 70
     1
102
RTVSPropertyOp51
 70
     0
102
RTVSPropertyOp52
 70
     0
102
RTVSPropertyOp53
 70
     1
102
RTVSPropertyOp54
 70
     1
102
RTVSPropertyOp55
 70
     1
102
RTVSPropertyOp56
 70
     1
102
RTVSPropertyOp57
 70
     1
102
RTVSPropertyOp58
 70
     1
102
RTVSPropertyOp59
 70
     1
102
RTVSPropertyOp60
 70
     1
102
RTVSPropertyOp61
 70
     1
102
RTVSPropertyOp62
 70
     1
  0
XRECORD
  5
1058
102
{ACAD_REACTORS
330
1057
102
}
330
1057
100
AcDbXrecord
280
     1
102
RTVSPost2010Prop28
280
     0
102
RTVSPost2010PropOp28
 70
     1
102
RTVSPost2010Prop29
280
     1
102
RTVSPost2010PropOp29
 70
     1
102
RTVSPost2010Prop30
280
     1
102
RTVSPost2010PropOp30
 70
     1
102
RTVSPost2010Prop31
280
     0
102
RTVSPost2010PropOp31
 70
     1
102
RTVSPost2010Prop32
280
     0
102
RTVSPost2010PropOp32
 70
     1
102
RTVSPost2010Prop33
280
     0
102
RTVSPost2010PropOp33
 70
     1
102
RTVSPost2010Prop34
280
     0
102
RTVSPost2010PropOp34
 70
     1
102
RTVSPost2010Prop35
280
     0
102
RTVSPost2010PropOp35
 70
     1
102
RTVSPost2010Prop36
280
     0
102
RTVSPost2010PropOp36
 70
     1
102
RTVSPost2010Prop37
 90
       50
102
RTVSPost2010PropOp37
 70
     1
102
RTVSPost2010Prop38
140
0.0
102
RTVSPost2010PropOp38
 70
     1
102
RTVSPost2010Prop39
140
1.0
102
RTVSPost2010PropOp39
 70
     1
102
RTVSPost2010Prop40
 90
        0
102
RTVSPost2010PropOp40
 70
     1
102
RTVSPost2010Prop41ColorIndex
 90
       18
102
RTVSPost2010Prop41ColorRGB
 90
        0
102
RTVSPost2010PropOp41
 70
     1
102
RTVSPost2010Prop42
 90
       50
102
RTVSPost2010PropOp42
 70
     1
102
RTVSPost2010Prop43
 90
        3
102
RTVSPost2010PropOp43
 70
     1
102
RTVSPost2010Prop44ColorIndex
 90
        5
102
RTVSPost2010Prop44ColorRGB
 90
      255
102
RTVSPost2010PropOp44
 70
     1
102
RTVSPost2010Prop45
280
     0
102
RTVSPost2010PropOp45
 70
     1
102
RTVSPost2010Prop46
 90
       50
102
RTVSPost2010PropOp46
 70
     1
102
RTVSPost2010Prop47
 90
       50
102
RTVSPost2010PropOp47
 70
     1
102
RTVSPost2010Prop48
 90
       50
102
RTVSPost2010PropOp48
 70
     1
102
RTVSPost2010Prop49
280
     0
102
RTVSPost2010PropOp49
 70
     1
102
RTVSPost2010Prop50
 90
       50
102
RTVSPost2010PropOp50
 70
     1
102
RTVSPost2010Prop51ColorIndex
 90
      256
102
RTVSPost2010Prop51ColorRGB
 90
-16777216
102
RTVSPost2010PropOp51
 70
     0
102
RTVSPost2010Prop52
140
1.0
102
RTVSPost2010PropOp52
 70
     0
102
RTVSPost2010Prop53
 90
        2
102
RTVSPost2010PropOp53
 70
     1
102
RTVSPost2010Prop54
  1
strokes_ogs.tif
102
RTVSPost2010PropOp54
 70
     1
102
RTVSPost2010Prop55
280
     0
102
RTVSPost2010PropOp55
 70
     1
102
RTVSPost2010Prop56
140
1.0
102
RTVSPost2010PropOp56
 70
     1
102
RTVSPost2010Prop57
140
1.0
102
RTVSPost2010PropOp57
 70
     1
102
RTVSPropertyOp0
 70
     1
102
RTVSPropertyOp1
 70
     1
102
RTVSPropertyOp2
 70
     1
102
RTVSPropertyOp3
 70
     1
102
RTVSPropertyOp4
 70
     1
102
RTVSPropertyOp5
 70
     1
102
RTVSPropertyOp6
 70
     1
102
RTVSPropertyOp7
 70
     1
102
RTVSPropertyOp8
 70
     1
102
RTVSPropertyOp9
 70
     1
102
RTVSPropertyOp10
 70
     1
102
RTVSPropertyOp11
 70
     1
102
RTVSPropertyOp12
 70
     1
102
RTVSPropertyOp13
 70
     1
102
RTVSPropertyOp14
 70
     1
102
RTVSPropertyOp15
 70
     1
102
RTVSPropertyOp16
 70
     1
102
RTVSPropertyOp17
 70
     1
102
RTVSPropertyOp18
 70
     1
102
RTVSPropertyOp19
 70
     1
102
RTVSPropertyOp20
 70
     1
102
RTVSPropertyOp21
 70
     1
102
RTVSPropertyOp22
 70
     1
102
RTVSPropertyOp23
 70
     1
102
RTVSPropertyOp24
 70
     1
102
RTVSPropertyOp25
 70
     1
102
RTVSPropertyOp26
 70
     1
102
RTVSPropertyOp27
 70
     1
102
RTVSPropertyOp28
 70
     1
102
RTVSPropertyOp29
 70
     1
102
RTVSPropertyOp30
 70
     1
102
RTVSPropertyOp31
 70
     1
102
RTVSPropertyOp32
 70
     1
102
RTVSPropertyOp33
 70
     1
102
RTVSPropertyOp34
 70
     1
102
RTVSPropertyOp35
 70
     1
102
RTVSPropertyOp36
 70
     1
102
RTVSPropertyOp37
 70
     1
102
RTVSPropertyOp38
 70
     1
102
RTVSPropertyOp39
 70
     1
102
RTVSPropertyOp40
 70
     1
102
RTVSPropertyOp41
 70
     1
102
RTVSPropertyOp42
 70
     1
102
RTVSPropertyOp43
 70
     1
102
RTVSPropertyOp44
 70
     1
102
RTVSPropertyOp45
 70
     1
102
RTVSPropertyOp46
 70
     1
102
RTVSPropertyOp47
 70
     1
102
RTVSPropertyOp48
 70
     1
102
RTVSPropertyOp49
 70
     1
102
RTVSPropertyOp50
 70
     1
102
RTVSPropertyOp51
 70
     0
102
RTVSPropertyOp52
 70
     0
102
RTVSPropertyOp53
 70
     1
102
RTVSPropertyOp54
 70
     1
102
RTVSPropertyOp55
 70
     1
102
RTVSPropertyOp56
 70
     1
102
RTVSPropertyOp57
 70
     1
102
RTVSPropertyOp58
 70
     1
102
RTVSPropertyOp59
 70
     1
102
RTVSPropertyOp60
 70
     1
102
RTVSPropertyOp61
 70
     1
102
RTVSPropertyOp62
 70
     1
  0
XRECORD
  5
105A
102
{ACAD_REACTORS
330
1059
102
}
330
1059
100
AcDbXrecord
280
     1
102
RTVSPost2010Prop28
280
     0
102
RTVSPost2010PropOp28
 70
     1
102
RTVSPost2010Prop29
280
     1
102
RTVSPost2010PropOp29
 70
     1
102
RTVSPost2010Prop30
280
     1
102
RTVSPost2010PropOp30
 70
     1
102
RTVSPost2010Prop31
280
     0
102
RTVSPost2010PropOp31
 70
     1
102
RTVSPost2010Prop32
280
     0
102
RTVSPost2010PropOp32
 70
     1
102
RTVSPost2010Prop33
280
     0
102
RTVSPost2010PropOp33
 70
     1
102
RTVSPost2010Prop34
280
     0
102
RTVSPost2010PropOp34
 70
     1
102
RTVSPost2010Prop35
280
     0
102
RTVSPost2010PropOp35
 70
     1
102
RTVSPost2010Prop36
280
     0
102
RTVSPost2010PropOp36
 70
     1
102
RTVSPost2010Prop37
 90
       50
102
RTVSPost2010PropOp37
 70
     1
102
RTVSPost2010Prop38
140
0.0
102
RTVSPost2010PropOp38
 70
     1
102
RTVSPost2010Prop39
140
1.0
102
RTVSPost2010PropOp39
 70
     1
102
RTVSPost2010Prop40
 90
        0
102
RTVSPost2010PropOp40
 70
     1
102
RTVSPost2010Prop41ColorIndex
 90
       18
102
RTVSPost2010Prop41ColorRGB
 90
        0
102
RTVSPost2010PropOp41
 70
     1
102
RTVSPost2010Prop42
 90
       50
102
RTVSPost2010PropOp42
 70
     1
102
RTVSPost2010Prop43
 90
        3
102
RTVSPost2010PropOp43
 70
     1
102
RTVSPost2010Prop44ColorIndex
 90
        5
102
RTVSPost2010Prop44ColorRGB
 90
      255
102
RTVSPost2010PropOp44
 70
     1
102
RTVSPost2010Prop45
280
     0
102
RTVSPost2010PropOp45
 70
     1
102
RTVSPost2010Prop46
 90
       50
102
RTVSPost2010PropOp46
 70
     1
102
RTVSPost2010Prop47
 90
       50
102
RTVSPost2010PropOp47
 70
     1
102
RTVSPost2010Prop48
 90
       50
102
RTVSPost2010PropOp48
 70
     1
102
RTVSPost2010Prop49
280
     0
102
RTVSPost2010PropOp49
 70
     1
102
RTVSPost2010Prop50
 90
       50
102
RTVSPost2010PropOp50
 70
     1
102
RTVSPost2010Prop51ColorIndex
 90
      256
102
RTVSPost2010Prop51ColorRGB
 90
-16777216
102
RTVSPost2010PropOp51
 70
     0
102
RTVSPost2010Prop52
140
1.0
102
RTVSPost2010PropOp52
 70
     0
102
RTVSPost2010Prop53
 90
        2
102
RTVSPost2010PropOp53
 70
     1
102
RTVSPost2010Prop54
  1
strokes_ogs.tif
102
RTVSPost2010PropOp54
 70
     1
102
RTVSPost2010Prop55
280
     0
102
RTVSPost2010PropOp55
 70
     1
102
RTVSPost2010Prop56
140
1.0
102
RTVSPost2010PropOp56
 70
     1
102
RTVSPost2010Prop57
140
1.0
102
RTVSPost2010PropOp57
 70
     1
102
RTVSPropertyOp0
 70
     1
102
RTVSPropertyOp1
 70
     1
102
RTVSPropertyOp2
 70
     1
102
RTVSPropertyOp3
 70
     1
102
RTVSPropertyOp4
 70
     1
102
RTVSPropertyOp5
 70
     1
102
RTVSPropertyOp6
 70
     1
102
RTVSPropertyOp7
 70
     1
102
RTVSPropertyOp8
 70
     1
102
RTVSPropertyOp9
 70
     1
102
RTVSPropertyOp10
 70
     1
102
RTVSPropertyOp11
 70
     1
102
RTVSPropertyOp12
 70
     1
102
RTVSPropertyOp13
 70
     1
102
RTVSPropertyOp14
 70
     1
102
RTVSPropertyOp15
 70
     1
102
RTVSPropertyOp16
 70
     1
102
RTVSPropertyOp17
 70
     1
102
RTVSPropertyOp18
 70
     1
102
RTVSPropertyOp19
 70
     1
102
RTVSPropertyOp20
 70
     1
102
RTVSPropertyOp21
 70
     1
102
RTVSPropertyOp22
 70
     1
102
RTVSPropertyOp23
 70
     1
102
RTVSPropertyOp24
 70
     1
102
RTVSPropertyOp25
 70
     1
102
RTVSPropertyOp26
 70
     1
102
RTVSPropertyOp27
 70
     1
102
RTVSPropertyOp28
 70
     1
102
RTVSPropertyOp29
 70
     1
102
RTVSPropertyOp30
 70
     1
102
RTVSPropertyOp31
 70
     1
102
RTVSPropertyOp32
 70
     1
102
RTVSPropertyOp33
 70
     1
102
RTVSPropertyOp34
 70
     1
102
RTVSPropertyOp35
 70
     1
102
RTVSPropertyOp36
 70
     1
102
RTVSPropertyOp37
 70
     1
102
RTVSPropertyOp38
 70
     1
102
RTVSPropertyOp39
 70
     1
102
RTVSPropertyOp40
 70
     1
102
RTVSPropertyOp41
 70
     1
102
RTVSPropertyOp42
 70
     1
102
RTVSPropertyOp43
 70
     1
102
RTVSPropertyOp44
 70
     1
102
RTVSPropertyOp45
 70
     1
102
RTVSPropertyOp46
 70
     1
102
RTVSPropertyOp47
 70
     1
102
RTVSPropertyOp48
 70
     1
102
RTVSPropertyOp49
 70
     1
102
RTVSPropertyOp50
 70
     1
102
RTVSPropertyOp51
 70
     0
102
RTVSPropertyOp52
 70
     0
102
RTVSPropertyOp53
 70
     1
102
RTVSPropertyOp54
 70
     1
102
RTVSPropertyOp55
 70
     1
102
RTVSPropertyOp56
 70
     1
102
RTVSPropertyOp57
 70
     1
102
RTVSPropertyOp58
 70
     1
102
RTVSPropertyOp59
 70
     1
102
RTVSPropertyOp60
 70
     1
102
RTVSPropertyOp61
 70
     1
102
RTVSPropertyOp62
 70
     1
  0
XRECORD
  5
1080
102
{ACAD_REACTORS
330
107F
102
}
330
107F
100
AcDbXrecord
280
     1
102
RTVSPost2010Prop28
280
     0
102
RTVSPost2010PropOp28
 70
     1
102
RTVSPost2010Prop29
280
     1
102
RTVSPost2010PropOp29
 70
     1
102
RTVSPost2010Prop30
280
     1
102
RTVSPost2010PropOp30
 70
     1
102
RTVSPost2010Prop31
280
     0
102
RTVSPost2010PropOp31
 70
     1
102
RTVSPost2010Prop32
280
     0
102
RTVSPost2010PropOp32
 70
     1
102
RTVSPost2010Prop33
280
     0
102
RTVSPost2010PropOp33
 70
     1
102
RTVSPost2010Prop34
280
     0
102
RTVSPost2010PropOp34
 70
     1
102
RTVSPost2010Prop35
280
     0
102
RTVSPost2010PropOp35
 70
     1
102
RTVSPost2010Prop36
280
     0
102
RTVSPost2010PropOp36
 70
     1
102
RTVSPost2010Prop37
 90
       50
102
RTVSPost2010PropOp37
 70
     1
102
RTVSPost2010Prop38
140
0.0
102
RTVSPost2010PropOp38
 70
     1
102
RTVSPost2010Prop39
140
1.0
102
RTVSPost2010PropOp39
 70
     1
102
RTVSPost2010Prop40
 90
        0
102
RTVSPost2010PropOp40
 70
     1
102
RTVSPost2010Prop41ColorIndex
 90
       18
102
RTVSPost2010Prop41ColorRGB
 90
        0
102
RTVSPost2010PropOp41
 70
     1
102
RTVSPost2010Prop42
 90
       50
102
RTVSPost2010PropOp42
 70
     1
102
RTVSPost2010Prop43
 90
        3
102
RTVSPost2010PropOp43
 70
     1
102
RTVSPost2010Prop44ColorIndex
 90
        5
102
RTVSPost2010Prop44ColorRGB
 90
      255
102
RTVSPost2010PropOp44
 70
     1
102
RTVSPost2010Prop45
280
     0
102
RTVSPost2010PropOp45
 70
     1
102
RTVSPost2010Prop46
 90
       50
102
RTVSPost2010PropOp46
 70
     1
102
RTVSPost2010Prop47
 90
       50
102
RTVSPost2010PropOp47
 70
     1
102
RTVSPost2010Prop48
 90
       50
102
RTVSPost2010PropOp48
 70
     1
102
RTVSPost2010Prop49
280
     0
102
RTVSPost2010PropOp49
 70
     1
102
RTVSPost2010Prop50
 90
       50
102
RTVSPost2010PropOp50
 70
     1
102
RTVSPost2010Prop51ColorIndex
 90
      256
102
RTVSPost2010Prop51ColorRGB
 90
-16777216
102
RTVSPost2010PropOp51
 70
     0
102
RTVSPost2010Prop52
140
1.0
102
RTVSPost2010PropOp52
 70
     0
102
RTVSPost2010Prop53
 90
        2
102
RTVSPost2010PropOp53
 70
     1
102
RTVSPost2010Prop54
  1
strokes_ogs.tif
102
RTVSPost2010PropOp54
 70
     1
102
RTVSPost2010Prop55
280
     0
102
RTVSPost2010PropOp55
 70
     1
102
RTVSPost2010Prop56
140
1.0
102
RTVSPost2010PropOp56
 70
     1
102
RTVSPost2010Prop57
140
1.0
102
RTVSPost2010PropOp57
 70
     1
102
RTVSPropertyOp0
 70
     1
102
RTVSPropertyOp1
 70
     1
102
RTVSPropertyOp2
 70
     1
102
RTVSPropertyOp3
 70
     1
102
RTVSPropertyOp4
 70
     1
102
RTVSPropertyOp5
 70
     1
102
RTVSPropertyOp6
 70
     1
102
RTVSPropertyOp7
 70
     1
102
RTVSPropertyOp8
 70
     1
102
RTVSPropertyOp9
 70
     1
102
RTVSPropertyOp10
 70
     1
102
RTVSPropertyOp11
 70
     1
102
RTVSPropertyOp12
 70
     1
102
RTVSPropertyOp13
 70
     1
102
RTVSPropertyOp14
 70
     1
102
RTVSPropertyOp15
 70
     1
102
RTVSPropertyOp16
 70
     1
102
RTVSPropertyOp17
 70
     1
102
RTVSPropertyOp18
 70
     1
102
RTVSPropertyOp19
 70
     1
102
RTVSPropertyOp20
 70
     1
102
RTVSPropertyOp21
 70
     1
102
RTVSPropertyOp22
 70
     1
102
RTVSPropertyOp23
 70
     1
102
RTVSPropertyOp24
 70
     1
102
RTVSPropertyOp25
 70
     1
102
RTVSPropertyOp26
 70
     1
102
RTVSPropertyOp27
 70
     1
102
RTVSPropertyOp28
 70
     1
102
RTVSPropertyOp29
 70
     1
102
RTVSPropertyOp30
 70
     1
102
RTVSPropertyOp31
 70
     1
102
RTVSPropertyOp32
 70
     1
102
RTVSPropertyOp33
 70
     1
102
RTVSPropertyOp34
 70
     1
102
RTVSPropertyOp35
 70
     1
102
RTVSPropertyOp36
 70
     1
102
RTVSPropertyOp37
 70
     1
102
RTVSPropertyOp38
 70
     1
102
RTVSPropertyOp39
 70
     1
102
RTVSPropertyOp40
 70
     1
102
RTVSPropertyOp41
 70
     1
102
RTVSPropertyOp42
 70
     1
102
RTVSPropertyOp43
 70
     1
102
RTVSPropertyOp44
 70
     1
102
RTVSPropertyOp45
 70
     1
102
RTVSPropertyOp46
 70
     1
102
RTVSPropertyOp47
 70
     1
102
RTVSPropertyOp48
 70
     1
102
RTVSPropertyOp49
 70
     1
102
RTVSPropertyOp50
 70
     1
102
RTVSPropertyOp51
 70
     0
102
RTVSPropertyOp52
 70
     0
102
RTVSPropertyOp53
 70
     1
102
RTVSPropertyOp54
 70
     1
102
RTVSPropertyOp55
 70
     1
102
RTVSPropertyOp56
 70
     1
102
RTVSPropertyOp57
 70
     1
102
RTVSPropertyOp58
 70
     1
102
RTVSPropertyOp59
 70
     1
102
RTVSPropertyOp60
 70
     1
102
RTVSPropertyOp61
 70
     1
102
RTVSPropertyOp62
 70
     1
  0
XRECORD
  5
108C
102
{ACAD_REACTORS
330
108B
102
}
330
108B
100
AcDbXrecord
280
     1
102
RTVSPost2010Prop28
280
     0
102
RTVSPost2010PropOp28
 70
     0
102
RTVSPost2010Prop29
280
     1
102
RTVSPost2010PropOp29
 70
     0
102
RTVSPost2010Prop30
280
     1
102
RTVSPost2010PropOp30
 70
     0
102
RTVSPost2010Prop31
280
     0
102
RTVSPost2010PropOp31
 70
     0
102
RTVSPost2010Prop32
280
     0
102
RTVSPost2010PropOp32
 70
     0
102
RTVSPost2010Prop33
280
     0
102
RTVSPost2010PropOp33
 70
     0
102
RTVSPost2010Prop34
280
     0
102
RTVSPost2010PropOp34
 70
     0
102
RTVSPost2010Prop35
280
     0
102
RTVSPost2010PropOp35
 70
     0
102
RTVSPost2010Prop36
280
     0
102
RTVSPost2010PropOp36
 70
     0
102
RTVSPost2010Prop37
 90
       50
102
RTVSPost2010PropOp37
 70
     0
102
RTVSPost2010Prop38
140
0.0
102
RTVSPost2010PropOp38
 70
     0
102
RTVSPost2010Prop39
140
1.0
102
RTVSPost2010PropOp39
 70
     0
102
RTVSPost2010Prop40
 90
        0
102
RTVSPost2010PropOp40
 70
     0
102
RTVSPost2010Prop41ColorIndex
 90
       18
102
RTVSPost2010Prop41ColorRGB
 90
        0
102
RTVSPost2010PropOp41
 70
     0
102
RTVSPost2010Prop42
 90
       50
102
RTVSPost2010PropOp42
 70
     0
102
RTVSPost2010Prop43
 90
        3
102
RTVSPost2010PropOp43
 70
     0
102
RTVSPost2010Prop44ColorIndex
 90
        5
102
RTVSPost2010Prop44ColorRGB
 90
      255
102
RTVSPost2010PropOp44
 70
     0
102
RTVSPost2010Prop45
280
     0
102
RTVSPost2010PropOp45
 70
     0
102
RTVSPost2010Prop46
 90
       50
102
RTVSPost2010PropOp46
 70
     0
102
RTVSPost2010Prop47
 90
       50
102
RTVSPost2010PropOp47
 70
     0
102
RTVSPost2010Prop48
 90
       50
102
RTVSPost2010PropOp48
 70
     0
102
RTVSPost2010Prop49
280
     0
102
RTVSPost2010PropOp49
 70
     0
102
RTVSPost2010Prop50
 90
       50
102
RTVSPost2010PropOp50
 70
     0
102
RTVSPost2010Prop51ColorIndex
 90
      256
102
RTVSPost2010Prop51ColorRGB
 90
-16777216
102
RTVSPost2010PropOp51
 70
     0
102
RTVSPost2010Prop52
140
1.0
102
RTVSPost2010PropOp52
 70
     0
102
RTVSPost2010Prop53
 90
        2
102
RTVSPost2010PropOp53
 70
     0
102
RTVSPost2010Prop54
  1
strokes_ogs.tif
102
RTVSPost2010PropOp54
 70
     0
102
RTVSPost2010Prop55
280
     0
102
RTVSPost2010PropOp55
 70
     0
102
RTVSPost2010Prop56
140
1.0
102
RTVSPost2010PropOp56
 70
     0
102
RTVSPost2010Prop57
140
1.0
102
RTVSPost2010PropOp57
 70
     0
102
RTVSPropertyOp0
 70
     0
102
RTVSPropertyOp1
 70
     0
102
RTVSPropertyOp2
 70
     0
102
RTVSPropertyOp3
 70
     0
102
RTVSPropertyOp4
 70
     0
102
RTVSPropertyOp5
 70
     0
102
RTVSPropertyOp6
 70
     0
102
RTVSPropertyOp7
 70
     0
102
RTVSPropertyOp8
 70
     0
102
RTVSPropertyOp9
 70
     0
102
RTVSPropertyOp10
 70
     0
102
RTVSPropertyOp11
 70
     0
102
RTVSPropertyOp12
 70
     0
102
RTVSPropertyOp13
 70
     0
102
RTVSPropertyOp14
 70
     2
102
RTVSPropertyOp15
 70
     0
102
RTVSPropertyOp16
 70
     0
102
RTVSPropertyOp17
 70
     0
102
RTVSPropertyOp18
 70
     0
102
RTVSPropertyOp19
 70
     0
102
RTVSPropertyOp20
 70
     0
102
RTVSPropertyOp21
 70
     0
102
RTVSPropertyOp22
 70
     0
102
RTVSPropertyOp23
 70
     0
102
RTVSPropertyOp24
 70
     0
102
RTVSPropertyOp25
 70
     0
102
RTVSPropertyOp26
 70
     0
102
RTVSPropertyOp27
 70
     0
102
RTVSPropertyOp28
 70
     0
102
RTVSPropertyOp29
 70
     0
102
RTVSPropertyOp30
 70
     0
102
RTVSPropertyOp31
 70
     0
102
RTVSPropertyOp32
 70
     0
102
RTVSPropertyOp33
 70
     0
102
RTVSPropertyOp34
 70
     0
102
RTVSPropertyOp35
 70
     0
102
RTVSPropertyOp36
 70
     0
102
RTVSPropertyOp37
 70
     0
102
RTVSPropertyOp38
 70
     0
102
RTVSPropertyOp39
 70
     0
102
RTVSPropertyOp40
 70
     0
102
RTVSPropertyOp41
 70
     0
102
RTVSPropertyOp42
 70
     0
102
RTVSPropertyOp43
 70
     0
102
RTVSPropertyOp44
 70
     0
102
RTVSPropertyOp45
 70
     0
102
RTVSPropertyOp46
 70
     0
102
RTVSPropertyOp47
 70
     0
102
RTVSPropertyOp48
 70
     0
102
RTVSPropertyOp49
 70
     0
102
RTVSPropertyOp50
 70
     0
102
RTVSPropertyOp51
 70
     0
102
RTVSPropertyOp52
 70
     0
102
RTVSPropertyOp53
 70
     0
102
RTVSPropertyOp54
 70
     0
102
RTVSPropertyOp55
 70
     0
102
RTVSPropertyOp56
 70
     0
102
RTVSPropertyOp57
 70
     0
102
RTVSPropertyOp58
 70
     0
102
RTVSPropertyOp59
 70
     0
102
RTVSPropertyOp60
 70
     0
102
RTVSPropertyOp61
 70
     0
102
RTVSPropertyOp62
 70
     0
  0
XRECORD
  5
106E
102
{ACAD_REACTORS
330
106D
102
}
330
106D
100
AcDbXrecord
280
     1
102
RTVSPost2010Prop28
280
     0
102
RTVSPost2010PropOp28
 70
     1
102
RTVSPost2010Prop29
280
     1
102
RTVSPost2010PropOp29
 70
     1
102
RTVSPost2010Prop30
280
     1
102
RTVSPost2010PropOp30
 70
     1
102
RTVSPost2010Prop31
280
     0
102
RTVSPost2010PropOp31
 70
     1
102
RTVSPost2010Prop32
280
     0
102
RTVSPost2010PropOp32
 70
     1
102
RTVSPost2010Prop33
280
     0
102
RTVSPost2010PropOp33
 70
     1
102
RTVSPost2010Prop34
280
     0
102
RTVSPost2010PropOp34
 70
     1
102
RTVSPost2010Prop35
280
     0
102
RTVSPost2010PropOp35
 70
     1
102
RTVSPost2010Prop36
280
     0
102
RTVSPost2010PropOp36
 70
     1
102
RTVSPost2010Prop37
 90
       50
102
RTVSPost2010PropOp37
 70
     1
102
RTVSPost2010Prop38
140
0.0
102
RTVSPost2010PropOp38
 70
     1
102
RTVSPost2010Prop39
140
1.0
102
RTVSPost2010PropOp39
 70
     1
102
RTVSPost2010Prop40
 90
        0
102
RTVSPost2010PropOp40
 70
     1
102
RTVSPost2010Prop41ColorIndex
 90
       18
102
RTVSPost2010Prop41ColorRGB
 90
        0
102
RTVSPost2010PropOp41
 70
     1
102
RTVSPost2010Prop42
 90
       50
102
RTVSPost2010PropOp42
 70
     1
102
RTVSPost2010Prop43
 90
        3
102
RTVSPost2010PropOp43
 70
     1
102
RTVSPost2010Prop44ColorIndex
 90
        5
102
RTVSPost2010Prop44ColorRGB
 90
      255
102
RTVSPost2010PropOp44
 70
     1
102
RTVSPost2010Prop45
280
     0
102
RTVSPost2010PropOp45
 70
     1
102
RTVSPost2010Prop46
 90
       50
102
RTVSPost2010PropOp46
 70
     1
102
RTVSPost2010Prop47
 90
       50
102
RTVSPost2010PropOp47
 70
     1
102
RTVSPost2010Prop48
 90
       50
102
RTVSPost2010PropOp48
 70
     1
102
RTVSPost2010Prop49
280
     0
102
RTVSPost2010PropOp49
 70
     1
102
RTVSPost2010Prop50
 90
       50
102
RTVSPost2010PropOp50
 70
     1
102
RTVSPost2010Prop51ColorIndex
 90
      256
102
RTVSPost2010Prop51ColorRGB
 90
-16777216
102
RTVSPost2010PropOp51
 70
     0
102
RTVSPost2010Prop52
140
1.0
102
RTVSPost2010PropOp52
 70
     0
102
RTVSPost2010Prop53
 90
        2
102
RTVSPost2010PropOp53
 70
     1
102
RTVSPost2010Prop54
  1
strokes_ogs.tif
102
RTVSPost2010PropOp54
 70
     1
102
RTVSPost2010Prop55
280
     0
102
RTVSPost2010PropOp55
 70
     1
102
RTVSPost2010Prop56
140
1.0
102
RTVSPost2010PropOp56
 70
     1
102
RTVSPost2010Prop57
140
1.0
102
RTVSPost2010PropOp57
 70
     1
102
RTVSPropertyOp0
 70
     1
102
RTVSPropertyOp1
 70
     1
102
RTVSPropertyOp2
 70
     1
102
RTVSPropertyOp3
 70
     1
102
RTVSPropertyOp4
 70
     1
102
RTVSPropertyOp5
 70
     1
102
RTVSPropertyOp6
 70
     1
102
RTVSPropertyOp7
 70
     1
102
RTVSPropertyOp8
 70
     1
102
RTVSPropertyOp9
 70
     1
102
RTVSPropertyOp10
 70
     1
102
RTVSPropertyOp11
 70
     1
102
RTVSPropertyOp12
 70
     1
102
RTVSPropertyOp13
 70
     1
102
RTVSPropertyOp14
 70
     1
102
RTVSPropertyOp15
 70
     1
102
RTVSPropertyOp16
 70
     1
102
RTVSPropertyOp17
 70
     1
102
RTVSPropertyOp18
 70
     1
102
RTVSPropertyOp19
 70
     1
102
RTVSPropertyOp20
 70
     1
102
RTVSPropertyOp21
 70
     1
102
RTVSPropertyOp22
 70
     1
102
RTVSPropertyOp23
 70
     1
102
RTVSPropertyOp24
 70
     1
102
RTVSPropertyOp25
 70
     1
102
RTVSPropertyOp26
 70
     1
102
RTVSPropertyOp27
 70
     1
102
RTVSPropertyOp28
 70
     1
102
RTVSPropertyOp29
 70
     1
102
RTVSPropertyOp30
 70
     1
102
RTVSPropertyOp31
 70
     1
102
RTVSPropertyOp32
 70
     1
102
RTVSPropertyOp33
 70
     1
102
RTVSPropertyOp34
 70
     1
102
RTVSPropertyOp35
 70
     1
102
RTVSPropertyOp36
 70
     1
102
RTVSPropertyOp37
 70
     1
102
RTVSPropertyOp38
 70
     1
102
RTVSPropertyOp39
 70
     1
102
RTVSPropertyOp40
 70
     1
102
RTVSPropertyOp41
 70
     1
102
RTVSPropertyOp42
 70
     1
102
RTVSPropertyOp43
 70
     1
102
RTVSPropertyOp44
 70
     1
102
RTVSPropertyOp45
 70
     1
102
RTVSPropertyOp46
 70
     1
102
RTVSPropertyOp47
 70
     1
102
RTVSPropertyOp48
 70
     1
102
RTVSPropertyOp49
 70
     1
102
RTVSPropertyOp50
 70
     1
102
RTVSPropertyOp51
 70
     0
102
RTVSPropertyOp52
 70
     0
102
RTVSPropertyOp53
 70
     1
102
RTVSPropertyOp54
 70
     1
102
RTVSPropertyOp55
 70
     1
102
RTVSPropertyOp56
 70
     1
102
RTVSPropertyOp57
 70
     1
102
RTVSPropertyOp58
 70
     1
102
RTVSPropertyOp59
 70
     1
102
RTVSPropertyOp60
 70
     1
102
RTVSPropertyOp61
 70
     1
102
RTVSPropertyOp62
 70
     1
  0
XRECORD
  5
108E
102
{ACAD_REACTORS
330
108D
102
}
330
108D
100
AcDbXrecord
280
     1
102
RTVSPost2010Prop28
280
     0
102
RTVSPost2010PropOp28
 70
     0
102
RTVSPost2010Prop29
280
     1
102
RTVSPost2010PropOp29
 70
     0
102
RTVSPost2010Prop30
280
     1
102
RTVSPost2010PropOp30
 70
     0
102
RTVSPost2010Prop31
280
     0
102
RTVSPost2010PropOp31
 70
     0
102
RTVSPost2010Prop32
280
     0
102
RTVSPost2010PropOp32
 70
     0
102
RTVSPost2010Prop33
280
     0
102
RTVSPost2010PropOp33
 70
     0
102
RTVSPost2010Prop34
280
     0
102
RTVSPost2010PropOp34
 70
     0
102
RTVSPost2010Prop35
280
     0
102
RTVSPost2010PropOp35
 70
     0
102
RTVSPost2010Prop36
280
     0
102
RTVSPost2010PropOp36
 70
     0
102
RTVSPost2010Prop37
 90
       50
102
RTVSPost2010PropOp37
 70
     0
102
RTVSPost2010Prop38
140
0.0
102
RTVSPost2010PropOp38
 70
     0
102
RTVSPost2010Prop39
140
1.0
102
RTVSPost2010PropOp39
 70
     0
102
RTVSPost2010Prop40
 90
        0
102
RTVSPost2010PropOp40
 70
     0
102
RTVSPost2010Prop41ColorIndex
 90
       18
102
RTVSPost2010Prop41ColorRGB
 90
        0
102
RTVSPost2010PropOp41
 70
     0
102
RTVSPost2010Prop42
 90
       50
102
RTVSPost2010PropOp42
 70
     0
102
RTVSPost2010Prop43
 90
        3
102
RTVSPost2010PropOp43
 70
     0
102
RTVSPost2010Prop44ColorIndex
 90
        5
102
RTVSPost2010Prop44ColorRGB
 90
      255
102
RTVSPost2010PropOp44
 70
     0
102
RTVSPost2010Prop45
280
     0
102
RTVSPost2010PropOp45
 70
     0
102
RTVSPost2010Prop46
 90
       50
102
RTVSPost2010PropOp46
 70
     0
102
RTVSPost2010Prop47
 90
       50
102
RTVSPost2010PropOp47
 70
     0
102
RTVSPost2010Prop48
 90
       50
102
RTVSPost2010PropOp48
 70
     0
102
RTVSPost2010Prop49
280
     0
102
RTVSPost2010PropOp49
 70
     0
102
RTVSPost2010Prop50
 90
       50
102
RTVSPost2010PropOp50
 70
     0
102
RTVSPost2010Prop51ColorIndex
 90
      256
102
RTVSPost2010Prop51ColorRGB
 90
-16777216
102
RTVSPost2010PropOp51
 70
     0
102
RTVSPost2010Prop52
140
1.0
102
RTVSPost2010PropOp52
 70
     0
102
RTVSPost2010Prop53
 90
        2
102
RTVSPost2010PropOp53
 70
     0
102
RTVSPost2010Prop54
  1
strokes_ogs.tif
102
RTVSPost2010PropOp54
 70
     0
102
RTVSPost2010Prop55
280
     0
102
RTVSPost2010PropOp55
 70
     0
102
RTVSPost2010Prop56
140
1.0
102
RTVSPost2010PropOp56
 70
     0
102
RTVSPost2010Prop57
140
1.0
102
RTVSPost2010PropOp57
 70
     0
102
RTVSPropertyOp0
 70
     0
102
RTVSPropertyOp1
 70
     0
102
RTVSPropertyOp2
 70
     0
102
RTVSPropertyOp3
 70
     0
102
RTVSPropertyOp4
 70
     0
102
RTVSPropertyOp5
 70
     0
102
RTVSPropertyOp6
 70
     0
102
RTVSPropertyOp7
 70
     0
102
RTVSPropertyOp8
 70
     0
102
RTVSPropertyOp9
 70
     0
102
RTVSPropertyOp10
 70
     0
102
RTVSPropertyOp11
 70
     0
102
RTVSPropertyOp12
 70
     0
102
RTVSPropertyOp13
 70
     0
102
RTVSPropertyOp14
 70
     2
102
RTVSPropertyOp15
 70
     0
102
RTVSPropertyOp16
 70
     0
102
RTVSPropertyOp17
 70
     0
102
RTVSPropertyOp18
 70
     0
102
RTVSPropertyOp19
 70
     0
102
RTVSPropertyOp20
 70
     0
102
RTVSPropertyOp21
 70
     0
102
RTVSPropertyOp22
 70
     0
102
RTVSPropertyOp23
 70
     0
102
RTVSPropertyOp24
 70
     0
102
RTVSPropertyOp25
 70
     0
102
RTVSPropertyOp26
 70
     0
102
RTVSPropertyOp27
 70
     0
102
RTVSPropertyOp28
 70
     0
102
RTVSPropertyOp29
 70
     0
102
RTVSPropertyOp30
 70
     0
102
RTVSPropertyOp31
 70
     0
102
RTVSPropertyOp32
 70
     0
102
RTVSPropertyOp33
 70
     0
102
RTVSPropertyOp34
 70
     0
102
RTVSPropertyOp35
 70
     0
102
RTVSPropertyOp36
 70
     0
102
RTVSPropertyOp37
 70
     0
102
RTVSPropertyOp38
 70
     0
102
RTVSPropertyOp39
 70
     0
102
RTVSPropertyOp40
 70
     0
102
RTVSPropertyOp41
 70
     0
102
RTVSPropertyOp42
 70
     0
102
RTVSPropertyOp43
 70
     0
102
RTVSPropertyOp44
 70
     0
102
RTVSPropertyOp45
 70
     0
102
RTVSPropertyOp46
 70
     0
102
RTVSPropertyOp47
 70
     0
102
RTVSPropertyOp48
 70
     0
102
RTVSPropertyOp49
 70
     0
102
RTVSPropertyOp50
 70
     0
102
RTVSPropertyOp51
 70
     0
102
RTVSPropertyOp52
 70
     0
102
RTVSPropertyOp53
 70
     0
102
RTVSPropertyOp54
 70
     0
102
RTVSPropertyOp55
 70
     0
102
RTVSPropertyOp56
 70
     0
102
RTVSPropertyOp57
 70
     0
102
RTVSPropertyOp58
 70
     0
102
RTVSPropertyOp59
 70
     0
102
RTVSPropertyOp60
 70
     0
102
RTVSPropertyOp61
 70
     0
102
RTVSPropertyOp62
 70
     0
  0
XRECORD
  5
1066
102
{ACAD_REACTORS
330
1065
102
}
330
1065
100
AcDbXrecord
280
     1
102
RTVSPost2010Prop28
280
     0
102
RTVSPost2010PropOp28
 70
     1
102
RTVSPost2010Prop29
280
     1
102
RTVSPost2010PropOp29
 70
     1
102
RTVSPost2010Prop30
280
     1
102
RTVSPost2010PropOp30
 70
     1
102
RTVSPost2010Prop31
280
     0
102
RTVSPost2010PropOp31
 70
     1
102
RTVSPost2010Prop32
280
     0
102
RTVSPost2010PropOp32
 70
     1
102
RTVSPost2010Prop33
280
     0
102
RTVSPost2010PropOp33
 70
     1
102
RTVSPost2010Prop34
280
     0
102
RTVSPost2010PropOp34
 70
     1
102
RTVSPost2010Prop35
280
     0
102
RTVSPost2010PropOp35
 70
     1
102
RTVSPost2010Prop36
280
     0
102
RTVSPost2010PropOp36
 70
     1
102
RTVSPost2010Prop37
 90
       50
102
RTVSPost2010PropOp37
 70
     1
102
RTVSPost2010Prop38
140
0.0
102
RTVSPost2010PropOp38
 70
     1
102
RTVSPost2010Prop39
140
1.0
102
RTVSPost2010PropOp39
 70
     1
102
RTVSPost2010Prop40
 90
        0
102
RTVSPost2010PropOp40
 70
     1
102
RTVSPost2010Prop41ColorIndex
 90
       18
102
RTVSPost2010Prop41ColorRGB
 90
        0
102
RTVSPost2010PropOp41
 70
     1
102
RTVSPost2010Prop42
 90
       50
102
RTVSPost2010PropOp42
 70
     1
102
RTVSPost2010Prop43
 90
        3
102
RTVSPost2010PropOp43
 70
     1
102
RTVSPost2010Prop44ColorIndex
 90
        5
102
RTVSPost2010Prop44ColorRGB
 90
      255
102
RTVSPost2010PropOp44
 70
     1
102
RTVSPost2010Prop45
280
     0
102
RTVSPost2010PropOp45
 70
     1
102
RTVSPost2010Prop46
 90
       50
102
RTVSPost2010PropOp46
 70
     1
102
RTVSPost2010Prop47
 90
       50
102
RTVSPost2010PropOp47
 70
     1
102
RTVSPost2010Prop48
 90
       50
102
RTVSPost2010PropOp48
 70
     1
102
RTVSPost2010Prop49
280
     0
102
RTVSPost2010PropOp49
 70
     1
102
RTVSPost2010Prop50
 90
       50
102
RTVSPost2010PropOp50
 70
     1
102
RTVSPost2010Prop51ColorIndex
 90
      256
102
RTVSPost2010Prop51ColorRGB
 90
-16777216
102
RTVSPost2010PropOp51
 70
     0
102
RTVSPost2010Prop52
140
1.0
102
RTVSPost2010PropOp52
 70
     0
102
RTVSPost2010Prop53
 90
        2
102
RTVSPost2010PropOp53
 70
     1
102
RTVSPost2010Prop54
  1
strokes_ogs.tif
102
RTVSPost2010PropOp54
 70
     1
102
RTVSPost2010Prop55
280
     0
102
RTVSPost2010PropOp55
 70
     1
102
RTVSPost2010Prop56
140
1.0
102
RTVSPost2010PropOp56
 70
     1
102
RTVSPost2010Prop57
140
1.0
102
RTVSPost2010PropOp57
 70
     1
102
RTVSPropertyOp0
 70
     1
102
RTVSPropertyOp1
 70
     1
102
RTVSPropertyOp2
 70
     1
102
RTVSPropertyOp3
 70
     1
102
RTVSPropertyOp4
 70
     1
102
RTVSPropertyOp5
 70
     1
102
RTVSPropertyOp6
 70
     1
102
RTVSPropertyOp7
 70
     1
102
RTVSPropertyOp8
 70
     1
102
RTVSPropertyOp9
 70
     1
102
RTVSPropertyOp10
 70
     1
102
RTVSPropertyOp11
 70
     1
102
RTVSPropertyOp12
 70
     1
102
RTVSPropertyOp13
 70
     1
102
RTVSPropertyOp14
 70
     1
102
RTVSPropertyOp15
 70
     1
102
RTVSPropertyOp16
 70
     1
102
RTVSPropertyOp17
 70
     1
102
RTVSPropertyOp18
 70
     1
102
RTVSPropertyOp19
 70
     1
102
RTVSPropertyOp20
 70
     1
102
RTVSPropertyOp21
 70
     1
102
RTVSPropertyOp22
 70
     1
102
RTVSPropertyOp23
 70
     1
102
RTVSPropertyOp24
 70
     1
102
RTVSPropertyOp25
 70
     1
102
RTVSPropertyOp26
 70
     1
102
RTVSPropertyOp27
 70
     1
102
RTVSPropertyOp28
 70
     1
102
RTVSPropertyOp29
 70
     1
102
RTVSPropertyOp30
 70
     1
102
RTVSPropertyOp31
 70
     1
102
RTVSPropertyOp32
 70
     1
102
RTVSPropertyOp33
 70
     1
102
RTVSPropertyOp34
 70
     1
102
RTVSPropertyOp35
 70
     1
102
RTVSPropertyOp36
 70
     1
102
RTVSPropertyOp37
 70
     1
102
RTVSPropertyOp38
 70
     1
102
RTVSPropertyOp39
 70
     1
102
RTVSPropertyOp40
 70
     1
102
RTVSPropertyOp41
 70
     1
102
RTVSPropertyOp42
 70
     1
102
RTVSPropertyOp43
 70
     1
102
RTVSPropertyOp44
 70
     1
102
RTVSPropertyOp45
 70
     1
102
RTVSPropertyOp46
 70
     1
102
RTVSPropertyOp47
 70
     1
102
RTVSPropertyOp48
 70
     1
102
RTVSPropertyOp49
 70
     1
102
RTVSPropertyOp50
 70
     1
102
RTVSPropertyOp51
 70
     0
102
RTVSPropertyOp52
 70
     0
102
RTVSPropertyOp53
 70
     1
102
RTVSPropertyOp54
 70
     1
102
RTVSPropertyOp55
 70
     1
102
RTVSPropertyOp56
 70
     1
102
RTVSPropertyOp57
 70
     1
102
RTVSPropertyOp58
 70
     1
102
RTVSPropertyOp59
 70
     1
102
RTVSPropertyOp60
 70
     1
102
RTVSPropertyOp61
 70
     1
102
RTVSPropertyOp62
 70
     1
  0
XRECORD
  5
108A
102
{ACAD_REACTORS
330
1089
102
}
330
1089
100
AcDbXrecord
280
     1
102
RTVSPost2010Prop28
280
     0
102
RTVSPost2010PropOp28
 70
     1
102
RTVSPost2010Prop29
280
     1
102
RTVSPost2010PropOp29
 70
     1
102
RTVSPost2010Prop30
280
     1
102
RTVSPost2010PropOp30
 70
     1
102
RTVSPost2010Prop31
280
     0
102
RTVSPost2010PropOp31
 70
     1
102
RTVSPost2010Prop32
280
     0
102
RTVSPost2010PropOp32
 70
     1
102
RTVSPost2010Prop33
280
     0
102
RTVSPost2010PropOp33
 70
     1
102
RTVSPost2010Prop34
280
     0
102
RTVSPost2010PropOp34
 70
     1
102
RTVSPost2010Prop35
280
     0
102
RTVSPost2010PropOp35
 70
     1
102
RTVSPost2010Prop36
280
     0
102
RTVSPost2010PropOp36
 70
     1
102
RTVSPost2010Prop37
 90
       50
102
RTVSPost2010PropOp37
 70
     1
102
RTVSPost2010Prop38
140
0.0
102
RTVSPost2010PropOp38
 70
     1
102
RTVSPost2010Prop39
140
1.0
102
RTVSPost2010PropOp39
 70
     1
102
RTVSPost2010Prop40
 90
        0
102
RTVSPost2010PropOp40
 70
     1
102
RTVSPost2010Prop41ColorIndex
 90
       18
102
RTVSPost2010Prop41ColorRGB
 90
        0
102
RTVSPost2010PropOp41
 70
     1
102
RTVSPost2010Prop42
 90
       50
102
RTVSPost2010PropOp42
 70
     1
102
RTVSPost2010Prop43
 90
        3
102
RTVSPost2010PropOp43
 70
     1
102
RTVSPost2010Prop44ColorIndex
 90
        5
102
RTVSPost2010Prop44ColorRGB
 90
      255
102
RTVSPost2010PropOp44
 70
     1
102
RTVSPost2010Prop45
280
     0
102
RTVSPost2010PropOp45
 70
     1
102
RTVSPost2010Prop46
 90
       50
102
RTVSPost2010PropOp46
 70
     1
102
RTVSPost2010Prop47
 90
       50
102
RTVSPost2010PropOp47
 70
     1
102
RTVSPost2010Prop48
 90
       50
102
RTVSPost2010PropOp48
 70
     1
102
RTVSPost2010Prop49
280
     0
102
RTVSPost2010PropOp49
 70
     1
102
RTVSPost2010Prop50
 90
       50
102
RTVSPost2010PropOp50
 70
     1
102
RTVSPost2010Prop51ColorIndex
 90
      256
102
RTVSPost2010Prop51ColorRGB
 90
-16777216
102
RTVSPost2010PropOp51
 70
     0
102
RTVSPost2010Prop52
140
1.0
102
RTVSPost2010PropOp52
 70
     0
102
RTVSPost2010Prop53
 90
        2
102
RTVSPost2010PropOp53
 70
     1
102
RTVSPost2010Prop54
  1
strokes_ogs.tif
102
RTVSPost2010PropOp54
 70
     1
102
RTVSPost2010Prop55
280
     0
102
RTVSPost2010PropOp55
 70
     1
102
RTVSPost2010Prop56
140
1.0
102
RTVSPost2010PropOp56
 70
     1
102
RTVSPost2010Prop57
140
1.0
102
RTVSPost2010PropOp57
 70
     1
102
RTVSPropertyOp0
 70
     1
102
RTVSPropertyOp1
 70
     1
102
RTVSPropertyOp2
 70
     1
102
RTVSPropertyOp3
 70
     1
102
RTVSPropertyOp4
 70
     1
102
RTVSPropertyOp5
 70
     1
102
RTVSPropertyOp6
 70
     1
102
RTVSPropertyOp7
 70
     1
102
RTVSPropertyOp8
 70
     1
102
RTVSPropertyOp9
 70
     1
102
RTVSPropertyOp10
 70
     1
102
RTVSPropertyOp11
 70
     1
102
RTVSPropertyOp12
 70
     1
102
RTVSPropertyOp13
 70
     1
102
RTVSPropertyOp14
 70
     1
102
RTVSPropertyOp15
 70
     1
102
RTVSPropertyOp16
 70
     1
102
RTVSPropertyOp17
 70
     1
102
RTVSPropertyOp18
 70
     1
102
RTVSPropertyOp19
 70
     1
102
RTVSPropertyOp20
 70
     1
102
RTVSPropertyOp21
 70
     1
102
RTVSPropertyOp22
 70
     1
102
RTVSPropertyOp23
 70
     1
102
RTVSPropertyOp24
 70
     1
102
RTVSPropertyOp25
 70
     1
102
RTVSPropertyOp26
 70
     1
102
RTVSPropertyOp27
 70
     1
102
RTVSPropertyOp28
 70
     1
102
RTVSPropertyOp29
 70
     1
102
RTVSPropertyOp30
 70
     1
102
RTVSPropertyOp31
 70
     1
102
RTVSPropertyOp32
 70
     1
102
RTVSPropertyOp33
 70
     1
102
RTVSPropertyOp34
 70
     1
102
RTVSPropertyOp35
 70
     1
102
RTVSPropertyOp36
 70
     1
102
RTVSPropertyOp37
 70
     1
102
RTVSPropertyOp38
 70
     1
102
RTVSPropertyOp39
 70
     1
102
RTVSPropertyOp40
 70
     1
102
RTVSPropertyOp41
 70
     1
102
RTVSPropertyOp42
 70
     1
102
RTVSPropertyOp43
 70
     1
102
RTVSPropertyOp44
 70
     1
102
RTVSPropertyOp45
 70
     1
102
RTVSPropertyOp46
 70
     1
102
RTVSPropertyOp47
 70
     1
102
RTVSPropertyOp48
 70
     1
102
RTVSPropertyOp49
 70
     1
102
RTVSPropertyOp50
 70
     1
102
RTVSPropertyOp51
 70
     0
102
RTVSPropertyOp52
 70
     0
102
RTVSPropertyOp53
 70
     1
102
RTVSPropertyOp54
 70
     1
102
RTVSPropertyOp55
 70
     1
102
RTVSPropertyOp56
 70
     1
102
RTVSPropertyOp57
 70
     1
102
RTVSPropertyOp58
 70
     1
102
RTVSPropertyOp59
 70
     1
102
RTVSPropertyOp60
 70
     1
102
RTVSPropertyOp61
 70
     1
102
RTVSPropertyOp62
 70
     1
  0
XRECORD
  5
1088
102
{ACAD_REACTORS
330
1087
102
}
330
1087
100
AcDbXrecord
280
     1
102
RTVSPost2010Prop28
280
     0
102
RTVSPost2010PropOp28
 70
     1
102
RTVSPost2010Prop29
280
     1
102
RTVSPost2010PropOp29
 70
     1
102
RTVSPost2010Prop30
280
     1
102
RTVSPost2010PropOp30
 70
     1
102
RTVSPost2010Prop31
280
     0
102
RTVSPost2010PropOp31
 70
     1
102
RTVSPost2010Prop32
280
     0
102
RTVSPost2010PropOp32
 70
     1
102
RTVSPost2010Prop33
280
     0
102
RTVSPost2010PropOp33
 70
     1
102
RTVSPost2010Prop34
280
     0
102
RTVSPost2010PropOp34
 70
     1
102
RTVSPost2010Prop35
280
     0
102
RTVSPost2010PropOp35
 70
     1
102
RTVSPost2010Prop36
280
     0
102
RTVSPost2010PropOp36
 70
     1
102
RTVSPost2010Prop37
 90
       50
102
RTVSPost2010PropOp37
 70
     1
102
RTVSPost2010Prop38
140
0.0
102
RTVSPost2010PropOp38
 70
     1
102
RTVSPost2010Prop39
140
1.0
102
RTVSPost2010PropOp39
 70
     1
102
RTVSPost2010Prop40
 90
        0
102
RTVSPost2010PropOp40
 70
     1
102
RTVSPost2010Prop41ColorIndex
 90
       18
102
RTVSPost2010Prop41ColorRGB
 90
        0
102
RTVSPost2010PropOp41
 70
     1
102
RTVSPost2010Prop42
 90
       50
102
RTVSPost2010PropOp42
 70
     1
102
RTVSPost2010Prop43
 90
        3
102
RTVSPost2010PropOp43
 70
     1
102
RTVSPost2010Prop44ColorIndex
 90
        5
102
RTVSPost2010Prop44ColorRGB
 90
      255
102
RTVSPost2010PropOp44
 70
     1
102
RTVSPost2010Prop45
280
     0
102
RTVSPost2010PropOp45
 70
     1
102
RTVSPost2010Prop46
 90
       50
102
RTVSPost2010PropOp46
 70
     1
102
RTVSPost2010Prop47
 90
       50
102
RTVSPost2010PropOp47
 70
     1
102
RTVSPost2010Prop48
 90
       50
102
RTVSPost2010PropOp48
 70
     1
102
RTVSPost2010Prop49
280
     0
102
RTVSPost2010PropOp49
 70
     1
102
RTVSPost2010Prop50
 90
       50
102
RTVSPost2010PropOp50
 70
     1
102
RTVSPost2010Prop51ColorIndex
 90
      256
102
RTVSPost2010Prop51ColorRGB
 90
-16777216
102
RTVSPost2010PropOp51
 70
     0
102
RTVSPost2010Prop52
140
1.0
102
RTVSPost2010PropOp52
 70
     0
102
RTVSPost2010Prop53
 90
        2
102
RTVSPost2010PropOp53
 70
     1
102
RTVSPost2010Prop54
  1
strokes_ogs.tif
102
RTVSPost2010PropOp54
 70
     1
102
RTVSPost2010Prop55
280
     0
102
RTVSPost2010PropOp55
 70
     1
102
RTVSPost2010Prop56
140
1.0
102
RTVSPost2010PropOp56
 70
     1
102
RTVSPost2010Prop57
140
1.0
102
RTVSPost2010PropOp57
 70
     1
102
RTVSPropertyOp0
 70
     1
102
RTVSPropertyOp1
 70
     1
102
RTVSPropertyOp2
 70
     1
102
RTVSPropertyOp3
 70
     1
102
RTVSPropertyOp4
 70
     1
102
RTVSPropertyOp5
 70
     1
102
RTVSPropertyOp6
 70
     1
102
RTVSPropertyOp7
 70
     1
102
RTVSPropertyOp8
 70
     1
102
RTVSPropertyOp9
 70
     1
102
RTVSPropertyOp10
 70
     1
102
RTVSPropertyOp11
 70
     1
102
RTVSPropertyOp12
 70
     1
102
RTVSPropertyOp13
 70
     1
102
RTVSPropertyOp14
 70
     1
102
RTVSPropertyOp15
 70
     1
102
RTVSPropertyOp16
 70
     1
102
RTVSPropertyOp17
 70
     1
102
RTVSPropertyOp18
 70
     1
102
RTVSPropertyOp19
 70
     1
102
RTVSPropertyOp20
 70
     1
102
RTVSPropertyOp21
 70
     1
102
RTVSPropertyOp22
 70
     1
102
RTVSPropertyOp23
 70
     1
102
RTVSPropertyOp24
 70
     1
102
RTVSPropertyOp25
 70
     1
102
RTVSPropertyOp26
 70
     1
102
RTVSPropertyOp27
 70
     1
102
RTVSPropertyOp28
 70
     1
102
RTVSPropertyOp29
 70
     1
102
RTVSPropertyOp30
 70
     1
102
RTVSPropertyOp31
 70
     1
102
RTVSPropertyOp32
 70
     1
102
RTVSPropertyOp33
 70
     1
102
RTVSPropertyOp34
 70
     1
102
RTVSPropertyOp35
 70
     1
102
RTVSPropertyOp36
 70
     1
102
RTVSPropertyOp37
 70
     1
102
RTVSPropertyOp38
 70
     1
102
RTVSPropertyOp39
 70
     1
102
RTVSPropertyOp40
 70
     1
102
RTVSPropertyOp41
 70
     1
102
RTVSPropertyOp42
 70
     1
102
RTVSPropertyOp43
 70
     1
102
RTVSPropertyOp44
 70
     1
102
RTVSPropertyOp45
 70
     1
102
RTVSPropertyOp46
 70
     1
102
RTVSPropertyOp47
 70
     1
102
RTVSPropertyOp48
 70
     1
102
RTVSPropertyOp49
 70
     1
102
RTVSPropertyOp50
 70
     1
102
RTVSPropertyOp51
 70
     0
102
RTVSPropertyOp52
 70
     0
102
RTVSPropertyOp53
 70
     1
102
RTVSPropertyOp54
 70
     1
102
RTVSPropertyOp55
 70
     1
102
RTVSPropertyOp56
 70
     1
102
RTVSPropertyOp57
 70
     1
102
RTVSPropertyOp58
 70
     1
102
RTVSPropertyOp59
 70
     1
102
RTVSPropertyOp60
 70
     1
102
RTVSPropertyOp61
 70
     1
102
RTVSPropertyOp62
 70
     1
  0
XRECORD
  5
1082
102
{ACAD_REACTORS
330
1081
102
}
330
1081
100
AcDbXrecord
280
     1
102
RTVSPost2010Prop28
280
     0
102
RTVSPost2010PropOp28
 70
     1
102
RTVSPost2010Prop29
280
     1
102
RTVSPost2010PropOp29
 70
     1
102
RTVSPost2010Prop30
280
     1
102
RTVSPost2010PropOp30
 70
     1
102
RTVSPost2010Prop31
280
     0
102
RTVSPost2010PropOp31
 70
     1
102
RTVSPost2010Prop32
280
     0
102
RTVSPost2010PropOp32
 70
     1
102
RTVSPost2010Prop33
280
     0
102
RTVSPost2010PropOp33
 70
     1
102
RTVSPost2010Prop34
280
     0
102
RTVSPost2010PropOp34
 70
     1
102
RTVSPost2010Prop35
280
     0
102
RTVSPost2010PropOp35
 70
     1
102
RTVSPost2010Prop36
280
     0
102
RTVSPost2010PropOp36
 70
     1
102
RTVSPost2010Prop37
 90
       50
102
RTVSPost2010PropOp37
 70
     1
102
RTVSPost2010Prop38
140
0.0
102
RTVSPost2010PropOp38
 70
     1
102
RTVSPost2010Prop39
140
1.0
102
RTVSPost2010PropOp39
 70
     1
102
RTVSPost2010Prop40
 90
        0
102
RTVSPost2010PropOp40
 70
     1
102
RTVSPost2010Prop41ColorIndex
 90
       18
102
RTVSPost2010Prop41ColorRGB
 90
        0
102
RTVSPost2010PropOp41
 70
     1
102
RTVSPost2010Prop42
 90
       50
102
RTVSPost2010PropOp42
 70
     1
102
RTVSPost2010Prop43
 90
        3
102
RTVSPost2010PropOp43
 70
     1
102
RTVSPost2010Prop44ColorIndex
 90
        5
102
RTVSPost2010Prop44ColorRGB
 90
      255
102
RTVSPost2010PropOp44
 70
     1
102
RTVSPost2010Prop45
280
     0
102
RTVSPost2010PropOp45
 70
     1
102
RTVSPost2010Prop46
 90
       50
102
RTVSPost2010PropOp46
 70
     1
102
RTVSPost2010Prop47
 90
       50
102
RTVSPost2010PropOp47
 70
     1
102
RTVSPost2010Prop48
 90
       50
102
RTVSPost2010PropOp48
 70
     1
102
RTVSPost2010Prop49
280
     0
102
RTVSPost2010PropOp49
 70
     1
102
RTVSPost2010Prop50
 90
       50
102
RTVSPost2010PropOp50
 70
     1
102
RTVSPost2010Prop51ColorIndex
 90
      256
102
RTVSPost2010Prop51ColorRGB
 90
-16777216
102
RTVSPost2010PropOp51
 70
     0
102
RTVSPost2010Prop52
140
1.0
102
RTVSPost2010PropOp52
 70
     0
102
RTVSPost2010Prop53
 90
        2
102
RTVSPost2010PropOp53
 70
     1
102
RTVSPost2010Prop54
  1
strokes_ogs.tif
102
RTVSPost2010PropOp54
 70
     1
102
RTVSPost2010Prop55
280
     0
102
RTVSPost2010PropOp55
 70
     1
102
RTVSPost2010Prop56
140
1.0
102
RTVSPost2010PropOp56
 70
     1
102
RTVSPost2010Prop57
140
1.0
102
RTVSPost2010PropOp57
 70
     1
102
RTVSPropertyOp0
 70
     1
102
RTVSPropertyOp1
 70
     1
102
RTVSPropertyOp2
 70
     1
102
RTVSPropertyOp3
 70
     1
102
RTVSPropertyOp4
 70
     1
102
RTVSPropertyOp5
 70
     1
102
RTVSPropertyOp6
 70
     1
102
RTVSPropertyOp7
 70
     1
102
RTVSPropertyOp8
 70
     1
102
RTVSPropertyOp9
 70
     1
102
RTVSPropertyOp10
 70
     1
102
RTVSPropertyOp11
 70
     1
102
RTVSPropertyOp12
 70
     1
102
RTVSPropertyOp13
 70
     1
102
RTVSPropertyOp14
 70
     1
102
RTVSPropertyOp15
 70
     1
102
RTVSPropertyOp16
 70
     1
102
RTVSPropertyOp17
 70
     1
102
RTVSPropertyOp18
 70
     1
102
RTVSPropertyOp19
 70
     1
102
RTVSPropertyOp20
 70
     1
102
RTVSPropertyOp21
 70
     1
102
RTVSPropertyOp22
 70
     1
102
RTVSPropertyOp23
 70
     1
102
RTVSPropertyOp24
 70
     1
102
RTVSPropertyOp25
 70
     1
102
RTVSPropertyOp26
 70
     1
102
RTVSPropertyOp27
 70
     1
102
RTVSPropertyOp28
 70
     1
102
RTVSPropertyOp29
 70
     1
102
RTVSPropertyOp30
 70
     1
102
RTVSPropertyOp31
 70
     1
102
RTVSPropertyOp32
 70
     1
102
RTVSPropertyOp33
 70
     1
102
RTVSPropertyOp34
 70
     1
102
RTVSPropertyOp35
 70
     1
102
RTVSPropertyOp36
 70
     1
102
RTVSPropertyOp37
 70
     1
102
RTVSPropertyOp38
 70
     1
102
RTVSPropertyOp39
 70
     1
102
RTVSPropertyOp40
 70
     1
102
RTVSPropertyOp41
 70
     1
102
RTVSPropertyOp42
 70
     1
102
RTVSPropertyOp43
 70
     1
102
RTVSPropertyOp44
 70
     1
102
RTVSPropertyOp45
 70
     1
102
RTVSPropertyOp46
 70
     1
102
RTVSPropertyOp47
 70
     1
102
RTVSPropertyOp48
 70
     1
102
RTVSPropertyOp49
 70
     1
102
RTVSPropertyOp50
 70
     1
102
RTVSPropertyOp51
 70
     0
102
RTVSPropertyOp52
 70
     0
102
RTVSPropertyOp53
 70
     1
102
RTVSPropertyOp54
 70
     1
102
RTVSPropertyOp55
 70
     1
102
RTVSPropertyOp56
 70
     1
102
RTVSPropertyOp57
 70
     1
102
RTVSPropertyOp58
 70
     1
102
RTVSPropertyOp59
 70
     1
102
RTVSPropertyOp60
 70
     1
102
RTVSPropertyOp61
 70
     1
102
RTVSPropertyOp62
 70
     1
  0
XRECORD
  5
1084
102
{ACAD_REACTORS
330
1083
102
}
330
1083
100
AcDbXrecord
280
     1
102
RTVSPost2010Prop28
280
     0
102
RTVSPost2010PropOp28
 70
     1
102
RTVSPost2010Prop29
280
     1
102
RTVSPost2010PropOp29
 70
     1
102
RTVSPost2010Prop30
280
     1
102
RTVSPost2010PropOp30
 70
     1
102
RTVSPost2010Prop31
280
     0
102
RTVSPost2010PropOp31
 70
     1
102
RTVSPost2010Prop32
280
     0
102
RTVSPost2010PropOp32
 70
     1
102
RTVSPost2010Prop33
280
     0
102
RTVSPost2010PropOp33
 70
     1
102
RTVSPost2010Prop34
280
     0
102
RTVSPost2010PropOp34
 70
     1
102
RTVSPost2010Prop35
280
     0
102
RTVSPost2010PropOp35
 70
     1
102
RTVSPost2010Prop36
280
     0
102
RTVSPost2010PropOp36
 70
     1
102
RTVSPost2010Prop37
 90
       50
102
RTVSPost2010PropOp37
 70
     1
102
RTVSPost2010Prop38
140
0.0
102
RTVSPost2010PropOp38
 70
     1
102
RTVSPost2010Prop39
140
1.0
102
RTVSPost2010PropOp39
 70
     1
102
RTVSPost2010Prop40
 90
        0
102
RTVSPost2010PropOp40
 70
     1
102
RTVSPost2010Prop41ColorIndex
 90
       18
102
RTVSPost2010Prop41ColorRGB
 90
        0
102
RTVSPost2010PropOp41
 70
     1
102
RTVSPost2010Prop42
 90
       50
102
RTVSPost2010PropOp42
 70
     1
102
RTVSPost2010Prop43
 90
        3
102
RTVSPost2010PropOp43
 70
     1
102
RTVSPost2010Prop44ColorIndex
 90
        5
102
RTVSPost2010Prop44ColorRGB
 90
      255
102
RTVSPost2010PropOp44
 70
     1
102
RTVSPost2010Prop45
280
     0
102
RTVSPost2010PropOp45
 70
     1
102
RTVSPost2010Prop46
 90
       50
102
RTVSPost2010PropOp46
 70
     1
102
RTVSPost2010Prop47
 90
       50
102
RTVSPost2010PropOp47
 70
     1
102
RTVSPost2010Prop48
 90
       50
102
RTVSPost2010PropOp48
 70
     1
102
RTVSPost2010Prop49
280
     0
102
RTVSPost2010PropOp49
 70
     1
102
RTVSPost2010Prop50
 90
       50
102
RTVSPost2010PropOp50
 70
     1
102
RTVSPost2010Prop51ColorIndex
 90
      256
102
RTVSPost2010Prop51ColorRGB
 90
-16777216
102
RTVSPost2010PropOp51
 70
     0
102
RTVSPost2010Prop52
140
1.0
102
RTVSPost2010PropOp52
 70
     0
102
RTVSPost2010Prop53
 90
        2
102
RTVSPost2010PropOp53
 70
     1
102
RTVSPost2010Prop54
  1
strokes_ogs.tif
102
RTVSPost2010PropOp54
 70
     1
102
RTVSPost2010Prop55
280
     0
102
RTVSPost2010PropOp55
 70
     1
102
RTVSPost2010Prop56
140
1.0
102
RTVSPost2010PropOp56
 70
     1
102
RTVSPost2010Prop57
140
1.0
102
RTVSPost2010PropOp57
 70
     1
102
RTVSPropertyOp0
 70
     1
102
RTVSPropertyOp1
 70
     1
102
RTVSPropertyOp2
 70
     1
102
RTVSPropertyOp3
 70
     1
102
RTVSPropertyOp4
 70
     1
102
RTVSPropertyOp5
 70
     1
102
RTVSPropertyOp6
 70
     1
102
RTVSPropertyOp7
 70
     1
102
RTVSPropertyOp8
 70
     1
102
RTVSPropertyOp9
 70
     1
102
RTVSPropertyOp10
 70
     1
102
RTVSPropertyOp11
 70
     1
102
RTVSPropertyOp12
 70
     1
102
RTVSPropertyOp13
 70
     1
102
RTVSPropertyOp14
 70
     1
102
RTVSPropertyOp15
 70
     1
102
RTVSPropertyOp16
 70
     1
102
RTVSPropertyOp17
 70
     1
102
RTVSPropertyOp18
 70
     1
102
RTVSPropertyOp19
 70
     1
102
RTVSPropertyOp20
 70
     1
102
RTVSPropertyOp21
 70
     1
102
RTVSPropertyOp22
 70
     1
102
RTVSPropertyOp23
 70
     1
102
RTVSPropertyOp24
 70
     1
102
RTVSPropertyOp25
 70
     1
102
RTVSPropertyOp26
 70
     1
102
RTVSPropertyOp27
 70
     1
102
RTVSPropertyOp28
 70
     1
102
RTVSPropertyOp29
 70
     1
102
RTVSPropertyOp30
 70
     1
102
RTVSPropertyOp31
 70
     1
102
RTVSPropertyOp32
 70
     1
102
RTVSPropertyOp33
 70
     1
102
RTVSPropertyOp34
 70
     1
102
RTVSPropertyOp35
 70
     1
102
RTVSPropertyOp36
 70
     1
102
RTVSPropertyOp37
 70
     1
102
RTVSPropertyOp38
 70
     1
102
RTVSPropertyOp39
 70
     1
102
RTVSPropertyOp40
 70
     1
102
RTVSPropertyOp41
 70
     1
102
RTVSPropertyOp42
 70
     1
102
RTVSPropertyOp43
 70
     1
102
RTVSPropertyOp44
 70
     1
102
RTVSPropertyOp45
 70
     1
102
RTVSPropertyOp46
 70
     1
102
RTVSPropertyOp47
 70
     1
102
RTVSPropertyOp48
 70
     1
102
RTVSPropertyOp49
 70
     1
102
RTVSPropertyOp50
 70
     1
102
RTVSPropertyOp51
 70
     0
102
RTVSPropertyOp52
 70
     0
102
RTVSPropertyOp53
 70
     1
102
RTVSPropertyOp54
 70
     1
102
RTVSPropertyOp55
 70
     1
102
RTVSPropertyOp56
 70
     1
102
RTVSPropertyOp57
 70
     1
102
RTVSPropertyOp58
 70
     1
102
RTVSPropertyOp59
 70
     1
102
RTVSPropertyOp60
 70
     1
102
RTVSPropertyOp61
 70
     1
102
RTVSPropertyOp62
 70
     1
  0
XRECORD
  5
106C
102
{ACAD_REACTORS
330
106B
102
}
330
106B
100
AcDbXrecord
280
     1
102
RTVSPost2010Prop28
280
     0
102
RTVSPost2010PropOp28
 70
     1
102
RTVSPost2010Prop29
280
     1
102
RTVSPost2010PropOp29
 70
     1
102
RTVSPost2010Prop30
280
     1
102
RTVSPost2010PropOp30
 70
     1
102
RTVSPost2010Prop31
280
     0
102
RTVSPost2010PropOp31
 70
     1
102
RTVSPost2010Prop32
280
     0
102
RTVSPost2010PropOp32
 70
     1
102
RTVSPost2010Prop33
280
     0
102
RTVSPost2010PropOp33
 70
     1
102
RTVSPost2010Prop34
280
     0
102
RTVSPost2010PropOp34
 70
     1
102
RTVSPost2010Prop35
280
     0
102
RTVSPost2010PropOp35
 70
     1
102
RTVSPost2010Prop36
280
     0
102
RTVSPost2010PropOp36
 70
     1
102
RTVSPost2010Prop37
 90
       50
102
RTVSPost2010PropOp37
 70
     1
102
RTVSPost2010Prop38
140
0.0
102
RTVSPost2010PropOp38
 70
     1
102
RTVSPost2010Prop39
140
1.0
102
RTVSPost2010PropOp39
 70
     1
102
RTVSPost2010Prop40
 90
        0
102
RTVSPost2010PropOp40
 70
     1
102
RTVSPost2010Prop41ColorIndex
 90
       18
102
RTVSPost2010Prop41ColorRGB
 90
        0
102
RTVSPost2010PropOp41
 70
     1
102
RTVSPost2010Prop42
 90
       50
102
RTVSPost2010PropOp42
 70
     1
102
RTVSPost2010Prop43
 90
        3
102
RTVSPost2010PropOp43
 70
     1
102
RTVSPost2010Prop44ColorIndex
 90
        5
102
RTVSPost2010Prop44ColorRGB
 90
      255
102
RTVSPost2010PropOp44
 70
     1
102
RTVSPost2010Prop45
280
     0
102
RTVSPost2010PropOp45
 70
     1
102
RTVSPost2010Prop46
 90
       50
102
RTVSPost2010PropOp46
 70
     1
102
RTVSPost2010Prop47
 90
       50
102
RTVSPost2010PropOp47
 70
     1
102
RTVSPost2010Prop48
 90
       50
102
RTVSPost2010PropOp48
 70
     1
102
RTVSPost2010Prop49
280
     0
102
RTVSPost2010PropOp49
 70
     1
102
RTVSPost2010Prop50
 90
       50
102
RTVSPost2010PropOp50
 70
     1
102
RTVSPost2010Prop51ColorIndex
 90
      256
102
RTVSPost2010Prop51ColorRGB
 90
-16777216
102
RTVSPost2010PropOp51
 70
     0
102
RTVSPost2010Prop52
140
1.0
102
RTVSPost2010PropOp52
 70
     0
102
RTVSPost2010Prop53
 90
        2
102
RTVSPost2010PropOp53
 70
     1
102
RTVSPost2010Prop54
  1
strokes_ogs.tif
102
RTVSPost2010PropOp54
 70
     1
102
RTVSPost2010Prop55
280
     0
102
RTVSPost2010PropOp55
 70
     1
102
RTVSPost2010Prop56
140
1.0
102
RTVSPost2010PropOp56
 70
     1
102
RTVSPost2010Prop57
140
1.0
102
RTVSPost2010PropOp57
 70
     1
102
RTVSPropertyOp0
 70
     1
102
RTVSPropertyOp1
 70
     1
102
RTVSPropertyOp2
 70
     1
102
RTVSPropertyOp3
 70
     1
102
RTVSPropertyOp4
 70
     1
102
RTVSPropertyOp5
 70
     1
102
RTVSPropertyOp6
 70
     1
102
RTVSPropertyOp7
 70
     1
102
RTVSPropertyOp8
 70
     1
102
RTVSPropertyOp9
 70
     1
102
RTVSPropertyOp10
 70
     1
102
RTVSPropertyOp11
 70
     1
102
RTVSPropertyOp12
 70
     1
102
RTVSPropertyOp13
 70
     1
102
RTVSPropertyOp14
 70
     1
102
RTVSPropertyOp15
 70
     1
102
RTVSPropertyOp16
 70
     1
102
RTVSPropertyOp17
 70
     1
102
RTVSPropertyOp18
 70
     1
102
RTVSPropertyOp19
 70
     1
102
RTVSPropertyOp20
 70
     1
102
RTVSPropertyOp21
 70
     1
102
RTVSPropertyOp22
 70
     1
102
RTVSPropertyOp23
 70
     1
102
RTVSPropertyOp24
 70
     1
102
RTVSPropertyOp25
 70
     1
102
RTVSPropertyOp26
 70
     1
102
RTVSPropertyOp27
 70
     1
102
RTVSPropertyOp28
 70
     1
102
RTVSPropertyOp29
 70
     1
102
RTVSPropertyOp30
 70
     1
102
RTVSPropertyOp31
 70
     1
102
RTVSPropertyOp32
 70
     1
102
RTVSPropertyOp33
 70
     1
102
RTVSPropertyOp34
 70
     1
102
RTVSPropertyOp35
 70
     1
102
RTVSPropertyOp36
 70
     1
102
RTVSPropertyOp37
 70
     1
102
RTVSPropertyOp38
 70
     1
102
RTVSPropertyOp39
 70
     1
102
RTVSPropertyOp40
 70
     1
102
RTVSPropertyOp41
 70
     1
102
RTVSPropertyOp42
 70
     1
102
RTVSPropertyOp43
 70
     1
102
RTVSPropertyOp44
 70
     1
102
RTVSPropertyOp45
 70
     1
102
RTVSPropertyOp46
 70
     1
102
RTVSPropertyOp47
 70
     1
102
RTVSPropertyOp48
 70
     1
102
RTVSPropertyOp49
 70
     1
102
RTVSPropertyOp50
 70
     1
102
RTVSPropertyOp51
 70
     0
102
RTVSPropertyOp52
 70
     0
102
RTVSPropertyOp53
 70
     1
102
RTVSPropertyOp54
 70
     1
102
RTVSPropertyOp55
 70
     1
102
RTVSPropertyOp56
 70
     1
102
RTVSPropertyOp57
 70
     1
102
RTVSPropertyOp58
 70
     1
102
RTVSPropertyOp59
 70
     1
102
RTVSPropertyOp60
 70
     1
102
RTVSPropertyOp61
 70
     1
102
RTVSPropertyOp62
 70
     1
  0
XRECORD
  5
107E
102
{ACAD_REACTORS
330
107D
102
}
330
107D
100
AcDbXrecord
280
     1
102
RTVSPost2010Prop28
280
     0
102
RTVSPost2010PropOp28
 70
     1
102
RTVSPost2010Prop29
280
     1
102
RTVSPost2010PropOp29
 70
     1
102
RTVSPost2010Prop30
280
     1
102
RTVSPost2010PropOp30
 70
     1
102
RTVSPost2010Prop31
280
     0
102
RTVSPost2010PropOp31
 70
     1
102
RTVSPost2010Prop32
280
     0
102
RTVSPost2010PropOp32
 70
     1
102
RTVSPost2010Prop33
280
     0
102
RTVSPost2010PropOp33
 70
     1
102
RTVSPost2010Prop34
280
     0
102
RTVSPost2010PropOp34
 70
     1
102
RTVSPost2010Prop35
280
     0
102
RTVSPost2010PropOp35
 70
     1
102
RTVSPost2010Prop36
280
     0
102
RTVSPost2010PropOp36
 70
     1
102
RTVSPost2010Prop37
 90
       50
102
RTVSPost2010PropOp37
 70
     1
102
RTVSPost2010Prop38
140
0.0
102
RTVSPost2010PropOp38
 70
     1
102
RTVSPost2010Prop39
140
1.0
102
RTVSPost2010PropOp39
 70
     1
102
RTVSPost2010Prop40
 90
        0
102
RTVSPost2010PropOp40
 70
     1
102
RTVSPost2010Prop41ColorIndex
 90
       18
102
RTVSPost2010Prop41ColorRGB
 90
        0
102
RTVSPost2010PropOp41
 70
     1
102
RTVSPost2010Prop42
 90
       50
102
RTVSPost2010PropOp42
 70
     1
102
RTVSPost2010Prop43
 90
        3
102
RTVSPost2010PropOp43
 70
     1
102
RTVSPost2010Prop44ColorIndex
 90
        5
102
RTVSPost2010Prop44ColorRGB
 90
      255
102
RTVSPost2010PropOp44
 70
     1
102
RTVSPost2010Prop45
280
     0
102
RTVSPost2010PropOp45
 70
     1
102
RTVSPost2010Prop46
 90
       50
102
RTVSPost2010PropOp46
 70
     1
102
RTVSPost2010Prop47
 90
       50
102
RTVSPost2010PropOp47
 70
     1
102
RTVSPost2010Prop48
 90
       50
102
RTVSPost2010PropOp48
 70
     1
102
RTVSPost2010Prop49
280
     0
102
RTVSPost2010PropOp49
 70
     1
102
RTVSPost2010Prop50
 90
       50
102
RTVSPost2010PropOp50
 70
     1
102
RTVSPost2010Prop51ColorIndex
 90
      256
102
RTVSPost2010Prop51ColorRGB
 90
-16777216
102
RTVSPost2010PropOp51
 70
     0
102
RTVSPost2010Prop52
140
1.0
102
RTVSPost2010PropOp52
 70
     0
102
RTVSPost2010Prop53
 90
        2
102
RTVSPost2010PropOp53
 70
     1
102
RTVSPost2010Prop54
  1
strokes_ogs.tif
102
RTVSPost2010PropOp54
 70
     1
102
RTVSPost2010Prop55
280
     0
102
RTVSPost2010PropOp55
 70
     1
102
RTVSPost2010Prop56
140
1.0
102
RTVSPost2010PropOp56
 70
     1
102
RTVSPost2010Prop57
140
1.0
102
RTVSPost2010PropOp57
 70
     1
102
RTVSPropertyOp0
 70
     1
102
RTVSPropertyOp1
 70
     1
102
RTVSPropertyOp2
 70
     1
102
RTVSPropertyOp3
 70
     1
102
RTVSPropertyOp4
 70
     1
102
RTVSPropertyOp5
 70
     1
102
RTVSPropertyOp6
 70
     1
102
RTVSPropertyOp7
 70
     1
102
RTVSPropertyOp8
 70
     1
102
RTVSPropertyOp9
 70
     1
102
RTVSPropertyOp10
 70
     1
102
RTVSPropertyOp11
 70
     1
102
RTVSPropertyOp12
 70
     1
102
RTVSPropertyOp13
 70
     1
102
RTVSPropertyOp14
 70
     1
102
RTVSPropertyOp15
 70
     1
102
RTVSPropertyOp16
 70
     1
102
RTVSPropertyOp17
 70
     1
102
RTVSPropertyOp18
 70
     1
102
RTVSPropertyOp19
 70
     1
102
RTVSPropertyOp20
 70
     1
102
RTVSPropertyOp21
 70
     1
102
RTVSPropertyOp22
 70
     1
102
RTVSPropertyOp23
 70
     1
102
RTVSPropertyOp24
 70
     1
102
RTVSPropertyOp25
 70
     1
102
RTVSPropertyOp26
 70
     1
102
RTVSPropertyOp27
 70
     1
102
RTVSPropertyOp28
 70
     1
102
RTVSPropertyOp29
 70
     1
102
RTVSPropertyOp30
 70
     1
102
RTVSPropertyOp31
 70
     1
102
RTVSPropertyOp32
 70
     1
102
RTVSPropertyOp33
 70
     1
102
RTVSPropertyOp34
 70
     1
102
RTVSPropertyOp35
 70
     1
102
RTVSPropertyOp36
 70
     1
102
RTVSPropertyOp37
 70
     1
102
RTVSPropertyOp38
 70
     1
102
RTVSPropertyOp39
 70
     1
102
RTVSPropertyOp40
 70
     1
102
RTVSPropertyOp41
 70
     1
102
RTVSPropertyOp42
 70
     1
102
RTVSPropertyOp43
 70
     1
102
RTVSPropertyOp44
 70
     1
102
RTVSPropertyOp45
 70
     1
102
RTVSPropertyOp46
 70
     1
102
RTVSPropertyOp47
 70
     1
102
RTVSPropertyOp48
 70
     1
102
RTVSPropertyOp49
 70
     1
102
RTVSPropertyOp50
 70
     1
102
RTVSPropertyOp51
 70
     0
102
RTVSPropertyOp52
 70
     0
102
RTVSPropertyOp53
 70
     1
102
RTVSPropertyOp54
 70
     1
102
RTVSPropertyOp55
 70
     1
102
RTVSPropertyOp56
 70
     1
102
RTVSPropertyOp57
 70
     1
102
RTVSPropertyOp58
 70
     1
102
RTVSPropertyOp59
 70
     1
102
RTVSPropertyOp60
 70
     1
102
RTVSPropertyOp61
 70
     1
102
RTVSPropertyOp62
 70
     1
  0
XRECORD
  5
1086
102
{ACAD_REACTORS
330
1085
102
}
330
1085
100
AcDbXrecord
280
     1
102
RTVSPost2010Prop28
280
     0
102
RTVSPost2010PropOp28
 70
     1
102
RTVSPost2010Prop29
280
     1
102
RTVSPost2010PropOp29
 70
     1
102
RTVSPost2010Prop30
280
     1
102
RTVSPost2010PropOp30
 70
     1
102
RTVSPost2010Prop31
280
     0
102
RTVSPost2010PropOp31
 70
     1
102
RTVSPost2010Prop32
280
     0
102
RTVSPost2010PropOp32
 70
     1
102
RTVSPost2010Prop33
280
     0
102
RTVSPost2010PropOp33
 70
     1
102
RTVSPost2010Prop34
280
     0
102
RTVSPost2010PropOp34
 70
     1
102
RTVSPost2010Prop35
280
     0
102
RTVSPost2010PropOp35
 70
     1
102
RTVSPost2010Prop36
280
     0
102
RTVSPost2010PropOp36
 70
     1
102
RTVSPost2010Prop37
 90
       50
102
RTVSPost2010PropOp37
 70
     1
102
RTVSPost2010Prop38
140
0.0
102
RTVSPost2010PropOp38
 70
     1
102
RTVSPost2010Prop39
140
1.0
102
RTVSPost2010PropOp39
 70
     1
102
RTVSPost2010Prop40
 90
        0
102
RTVSPost2010PropOp40
 70
     1
102
RTVSPost2010Prop41ColorIndex
 90
       18
102
RTVSPost2010Prop41ColorRGB
 90
        0
102
RTVSPost2010PropOp41
 70
     1
102
RTVSPost2010Prop42
 90
       50
102
RTVSPost2010PropOp42
 70
     1
102
RTVSPost2010Prop43
 90
        3
102
RTVSPost2010PropOp43
 70
     1
102
RTVSPost2010Prop44ColorIndex
 90
        5
102
RTVSPost2010Prop44ColorRGB
 90
      255
102
RTVSPost2010PropOp44
 70
     1
102
RTVSPost2010Prop45
280
     0
102
RTVSPost2010PropOp45
 70
     1
102
RTVSPost2010Prop46
 90
       50
102
RTVSPost2010PropOp46
 70
     1
102
RTVSPost2010Prop47
 90
       50
102
RTVSPost2010PropOp47
 70
     1
102
RTVSPost2010Prop48
 90
       50
102
RTVSPost2010PropOp48
 70
     1
102
RTVSPost2010Prop49
280
     0
102
RTVSPost2010PropOp49
 70
     1
102
RTVSPost2010Prop50
 90
       50
102
RTVSPost2010PropOp50
 70
     1
102
RTVSPost2010Prop51ColorIndex
 90
      256
102
RTVSPost2010Prop51ColorRGB
 90
-16777216
102
RTVSPost2010PropOp51
 70
     0
102
RTVSPost2010Prop52
140
1.0
102
RTVSPost2010PropOp52
 70
     0
102
RTVSPost2010Prop53
 90
        2
102
RTVSPost2010PropOp53
 70
     1
102
RTVSPost2010Prop54
  1
strokes_ogs.tif
102
RTVSPost2010PropOp54
 70
     1
102
RTVSPost2010Prop55
280
     0
102
RTVSPost2010PropOp55
 70
     1
102
RTVSPost2010Prop56
140
1.0
102
RTVSPost2010PropOp56
 70
     1
102
RTVSPost2010Prop57
140
1.0
102
RTVSPost2010PropOp57
 70
     1
102
RTVSPropertyOp0
 70
     1
102
RTVSPropertyOp1
 70
     1
102
RTVSPropertyOp2
 70
     1
102
RTVSPropertyOp3
 70
     1
102
RTVSPropertyOp4
 70
     1
102
RTVSPropertyOp5
 70
     1
102
RTVSPropertyOp6
 70
     1
102
RTVSPropertyOp7
 70
     1
102
RTVSPropertyOp8
 70
     1
102
RTVSPropertyOp9
 70
     1
102
RTVSPropertyOp10
 70
     1
102
RTVSPropertyOp11
 70
     1
102
RTVSPropertyOp12
 70
     1
102
RTVSPropertyOp13
 70
     1
102
RTVSPropertyOp14
 70
     1
102
RTVSPropertyOp15
 70
     1
102
RTVSPropertyOp16
 70
     1
102
RTVSPropertyOp17
 70
     1
102
RTVSPropertyOp18
 70
     1
102
RTVSPropertyOp19
 70
     1
102
RTVSPropertyOp20
 70
     1
102
RTVSPropertyOp21
 70
     1
102
RTVSPropertyOp22
 70
     1
102
RTVSPropertyOp23
 70
     1
102
RTVSPropertyOp24
 70
     1
102
RTVSPropertyOp25
 70
     1
102
RTVSPropertyOp26
 70
     1
102
RTVSPropertyOp27
 70
     1
102
RTVSPropertyOp28
 70
     1
102
RTVSPropertyOp29
 70
     1
102
RTVSPropertyOp30
 70
     1
102
RTVSPropertyOp31
 70
     1
102
RTVSPropertyOp32
 70
     1
102
RTVSPropertyOp33
 70
     1
102
RTVSPropertyOp34
 70
     1
102
RTVSPropertyOp35
 70
     1
102
RTVSPropertyOp36
 70
     1
102
RTVSPropertyOp37
 70
     1
102
RTVSPropertyOp38
 70
     1
102
RTVSPropertyOp39
 70
     1
102
RTVSPropertyOp40
 70
     1
102
RTVSPropertyOp41
 70
     1
102
RTVSPropertyOp42
 70
     1
102
RTVSPropertyOp43
 70
     1
102
RTVSPropertyOp44
 70
     1
102
RTVSPropertyOp45
 70
     1
102
RTVSPropertyOp46
 70
     1
102
RTVSPropertyOp47
 70
     1
102
RTVSPropertyOp48
 70
     1
102
RTVSPropertyOp49
 70
     1
102
RTVSPropertyOp50
 70
     1
102
RTVSPropertyOp51
 70
     0
102
RTVSPropertyOp52
 70
     0
102
RTVSPropertyOp53
 70
     1
102
RTVSPropertyOp54
 70
     1
102
RTVSPropertyOp55
 70
     1
102
RTVSPropertyOp56
 70
     1
102
RTVSPropertyOp57
 70
     1
102
RTVSPropertyOp58
 70
     1
102
RTVSPropertyOp59
 70
     1
102
RTVSPropertyOp60
 70
     1
102
RTVSPropertyOp61
 70
     1
102
RTVSPropertyOp62
 70
     1
  0
ENDSEC
  0
EOF
